<?xml version="1.0" standalone="no"?>
<!DOCTYPE svg PUBLIC "-//W3C//DTD SVG 1.1//EN" "http://www.w3.org/Graphics/SVG/1.1/DTD/svg11.dtd" >
<svg xmlns="http://www.w3.org/2000/svg" xmlns:xlink="http://www.w3.org/1999/xlink" version="1.1">
<metadata></metadata>
<defs>
<font id="liberation_sansbold" horiz-adv-x="1139" >
<font-face units-per-em="2048" ascent="1638" descent="-410" />
<missing-glyph horiz-adv-x="569" />
<glyph horiz-adv-x="0" />
<glyph unicode="&#xd;" horiz-adv-x="569" />
<glyph unicode=" "  horiz-adv-x="569" />
<glyph unicode="&#x09;" horiz-adv-x="569" />
<glyph unicode="&#xa0;" horiz-adv-x="569" />
<glyph unicode="!" horiz-adv-x="682" d="M193 0v270h288v-270h-288zM193 1409h294l-32 -983h-230z" />
<glyph unicode="&#x22;" horiz-adv-x="971" d="M135 1409h273l-27 -511h-219zM561 1409h275l-29 -511h-219z" />
<glyph unicode="#" d="M35 381v149h188l70 332h-207v148h238l84 385h153l-82 -385h307l84 385h156l-84 -385h164v-148h-197l-69 -332h215v-149h-246l-82 -381h-156l80 381h-307l-80 -381h-153l79 381h-155zM377 530h309l70 332h-307z" />
<glyph unicode="$" d="M27 408l256 47q8 -48 23.5 -87.5t42.5 -68.5t68.5 -47.5t102.5 -24.5v391q-3 2 -15 4.5t-16 2.5q-78 18 -153 44.5t-133.5 72t-94.5 115t-36 173.5q0 91 33 156.5t92.5 108.5t142 65t180.5 26v134h109v-134q107 -4 182 -28t127 -67.5t84 -107t53 -147.5l-264 -39 q-15 87 -58.5 134.5t-123.5 58.5v-352q5 -2 10.5 -2t11.5 -2q86 -20 168.5 -47t147 -73t104 -118.5t39.5 -183.5q0 -85 -28 -154.5t-86.5 -120t-149.5 -80t-217 -34.5v-175h-109v172q-114 4 -198.5 31t-144 76t-96 119.5t-54.5 161.5zM334 1034q0 -43 14 -70.5t39 -45.5 t59 -30.5t74 -25.5v332q-53 -4 -88.5 -18t-57.5 -35.5t-31 -49t-9 -57.5zM629 227q106 7 163.5 50t57.5 131q0 49 -17 79.5t-47 49.5t-70.5 31.5t-86.5 25.5v-367z" />
<glyph unicode="%" horiz-adv-x="1821" d="M51 977q0 132 27 218.5t75 137.5t113.5 71.5t141.5 20.5q72 0 136 -20.5t112 -71.5t76 -137.5t28 -218.5q0 -125 -28 -211t-76.5 -139t-113.5 -76t-139 -23q-73 0 -137.5 23t-112 75.5t-75 138.5t-27.5 212zM266 977q0 -84 8.5 -140t26 -90t43.5 -48.5t62 -14.5 q34 0 59.5 14t43 48t26 90.5t8.5 140.5q0 86 -8.5 142.5t-25.5 90t-42 47t-59 13.5q-37 0 -64 -14t-44 -47.5t-25.5 -90t-8.5 -141.5zM346 0l920 1409h209l-923 -1409h-206zM1059 432q0 132 27.5 218.5t75.5 138t113.5 72t141.5 20.5q72 0 136 -20.5t111.5 -72t75 -138 t27.5 -218.5q0 -125 -28 -211t-76 -138.5t-112.5 -75.5t-137.5 -23q-75 0 -139.5 23t-112 75.5t-75 138.5t-27.5 211zM1276 432q0 -84 8 -139.5t25.5 -89.5t43.5 -48t62 -14q33 0 58.5 14t43 47.5t26.5 89.5t9 140q0 87 -8.5 144t-25.5 90.5t-42 47t-59 13.5 q-37 0 -63.5 -13.5t-43.5 -47.5t-25.5 -91t-8.5 -143z" />
<glyph unicode="&#x26;" horiz-adv-x="1479" d="M90 385q0 79 25.5 143t70.5 116t107 93.5t135 75.5q-32 65 -53 139t-21 140t20 125t65 103.5t117 70.5t175 26q81 0 147.5 -19.5t114.5 -57.5t74.5 -93t26.5 -127q0 -73 -33 -129.5t-87.5 -102t-125.5 -83t-146 -72.5q51 -90 112 -173.5t132 -162.5q56 85 94 174.5 t64 188.5l209 -70q-34 -117 -81 -220t-112 -200q45 -38 90 -55.5t88 -17.5q32 0 61.5 4t55.5 12v-203q-55 -22 -131 -22q-51 0 -98 10t-89 26.5t-78 38.5t-65 46q-33 -25 -73.5 -48.5t-88 -41.5t-102 -28.5t-115.5 -10.5q-126 0 -218 31t-151 85t-87.5 128t-28.5 161z M344 389q0 -46 15.5 -86t45.5 -69.5t75.5 -46.5t105.5 -17q65 0 117.5 24t84.5 52q-77 86 -146 180t-126 197q-83 -39 -127.5 -96t-44.5 -138zM571 1090q0 -48 15.5 -98t38.5 -95q51 22 96 44.5t78 49t52 57.5t19 70q0 57 -38 93t-103 36q-77 0 -117.5 -43t-40.5 -114z" />
<glyph unicode="'" horiz-adv-x="487" d="M109 1409h272l-27 -511h-219z" />
<glyph unicode="(" horiz-adv-x="682" d="M102 531q0 143 17.5 267.5t54 240t92.5 225t133 220.5h281q-80 -116 -137 -229t-93.5 -229t-53.5 -238.5t-17 -257.5q0 -136 17 -258.5t53.5 -238.5t93.5 -228.5t137 -229.5h-281q-77 111 -133 221t-92.5 226t-54 241.5t-17.5 267.5z" />
<glyph unicode=")" horiz-adv-x="682" d="M2 -425q80 117 137 229.5t93.5 228.5t53.5 238.5t17 258.5q0 135 -17 257.5t-53.5 238.5t-93.5 229t-137 229h281q77 -111 133 -220.5t92.5 -225t54 -240t17.5 -267.5q0 -142 -17.5 -267.5t-54 -241.5t-92.5 -226t-133 -221h-281z" />
<glyph unicode="*" horiz-adv-x="797" d="M6 1042l68 197l239 -104l-18 274h215l-18 -274l235 104l68 -197l-250 -61l186 -213l-184 -121l-146 252l-149 -252l-186 123l190 211z" />
<glyph unicode="+" horiz-adv-x="1196" d="M86 569v224h399v408h226v-408h402v-224h-402v-408h-226v408h-399z" />
<glyph unicode="," horiz-adv-x="569" d="M139 -317q29 35 53 74t42 80t28 82t10 81h-129v305h289v-239q0 -67 -7.5 -122t-21.5 -101.5t-34 -85.5t-45 -74h-185z" />
<glyph unicode="-" horiz-adv-x="682" d="M80 409v244h520v-244h-520z" />
<glyph unicode="." horiz-adv-x="569" d="M139 0v305h289v-305h-289z" />
<glyph unicode="/" horiz-adv-x="569" d="M20 -41l291 1525h238l-286 -1525h-243z" />
<glyph unicode="0" d="M81 705q0 213 35.5 352.5t100.5 222.5t155.5 116.5t200.5 33.5q103 0 191.5 -33.5t153 -116.5t101 -222.5t36.5 -352.5q0 -202 -37 -340.5t-102.5 -224t-155 -123t-195.5 -37.5t-195 37t-153 122.5t-100 224t-36 341.5zM362 705q0 -145 11 -242t35 -155.5t63 -82.5 t96 -24q55 0 94 24t64 82.5t36.5 155.5t11.5 242q0 149 -11 246.5t-35 155t-62.5 80.5t-93.5 23q-59 0 -99 -23.5t-64.5 -81.5t-35 -155.5t-10.5 -244.5z" />
<glyph unicode="1" d="M129 0v209h349v961l-338 -211v221l353 229h266v-1200h323v-209h-953z" />
<glyph unicode="2" d="M71 0v195q48 105 117 189.5t144.5 155t150 131t134 117t96.5 113.5t37 121q0 94 -47 139t-138 45q-90 0 -137.5 -48.5t-61.5 -145.5l-283 16q10 83 41 156t88.5 128t144 86.5t206.5 31.5q114 0 202 -26.5t148 -77.5t91 -124.5t31 -167.5q0 -99 -39 -179t-100 -147.5 t-135.5 -126.5t-144.5 -115t-127.5 -113t-85.5 -122h654v-231h-986z" />
<glyph unicode="3" d="M47 383l286 25q6 -45 22.5 -82.5t44.5 -64.5t68.5 -41.5t95.5 -14.5q101 0 157 50t56 153q0 63 -26.5 101t-67 58.5t-87.5 27.5t-89 7h-98v227h92q42 0 85.5 8t78.5 29t57 58.5t22 95.5q0 87 -48.5 136.5t-141.5 49.5q-87 0 -140.5 -48t-61.5 -136l-281 20 q12 99 54.5 172t107 121t148.5 71.5t178 23.5q124 0 213 -30t146 -81t84 -119t27 -145q0 -62 -18 -115.5t-54.5 -96t-93.5 -73t-135 -45.5v-4q87 -10 151 -39.5t105 -73.5t61 -99.5t20 -117.5q0 -96 -31.5 -172.5t-94.5 -130.5t-156.5 -82.5t-217.5 -28.5q-138 0 -232.5 35 t-155 92.5t-91 130.5t-39.5 148z" />
<glyph unicode="4" d="M31 287v211l595 911h314v-913h188v-209h-188v-287h-268v287h-641zM260 496h412v461q0 17 0.5 44.5t2 56.5t3 55.5t3.5 41.5q-5 -11 -16 -31.5t-24.5 -44t-28 -46.5t-25.5 -40z" />
<glyph unicode="5" d="M63 352l281 23q8 -33 22.5 -64t40.5 -55t64 -38.5t92 -14.5q105 0 167.5 67t62.5 193q0 56 -15.5 101t-44 77t-70 49t-94.5 17q-70 0 -115 -26.5t-76 -64.5h-274l49 793h847v-209h-592l-23 -356q42 37 106 63.5t149 26.5q104 0 186 -34t139 -95t87 -146.5t30 -189.5 q0 -106 -33.5 -195.5t-99.5 -155t-163.5 -102t-225.5 -36.5q-118 0 -206 28.5t-148.5 79t-95 118.5t-47.5 146z" />
<glyph unicode="6" d="M75 672q0 377 135.5 567.5t387.5 190.5q84 0 153 -17.5t123 -56.5t92 -100.5t61 -149.5l-265 -37q-20 74 -65 106.5t-105 32.5q-113 0 -177.5 -113t-64.5 -343q45 75 125 115t181 40q93 0 168.5 -30.5t129 -88t82.5 -140.5t29 -187q0 -106 -30 -194.5t-89.5 -152 t-148.5 -99t-206 -35.5q-249 0 -382.5 174.5t-133.5 517.5zM370 483q0 -60 15 -112t42.5 -90.5t66.5 -60t88 -21.5q95 0 148 67.5t53 186.5q0 57 -13 102.5t-39.5 77.5t-65.5 49.5t-90 17.5q-37 0 -74 -12t-66 -38.5t-47 -67.5t-18 -99z" />
<glyph unicode="7" d="M88 1178v231h961v-223q-95 -150 -179.5 -291t-147.5 -283.5t-99.5 -293t-36.5 -318.5h-293q0 167 39.5 317.5t107.5 293.5t158 282.5t190 284.5h-700z" />
<glyph unicode="8" d="M65 395q0 77 24 136.5t64 102.5t92 68.5t107 34.5v4q-59 13 -106 43t-80 72t-50.5 93.5t-17.5 107.5q0 84 30.5 153t89.5 118t146.5 75.5t202.5 26.5q123 0 212.5 -27.5t147.5 -77t86 -118.5t28 -152q0 -55 -17.5 -106.5t-50.5 -93.5t-80.5 -71t-107.5 -41v-4 q62 -10 115.5 -36.5t92.5 -69t61 -102t22 -134.5q0 -91 -30 -167.5t-92 -132t-157 -86.5t-226 -31q-130 0 -225.5 31t-158 86.5t-92.5 131.5t-30 166zM354 416q0 -53 10.5 -97t36 -75.5t67.5 -48.5t105 -17t104 17.5t65 49.5t33.5 76.5t9.5 98.5q0 43 -9.5 83t-34 70.5 t-67.5 49t-109 18.5q-60 0 -100.5 -18.5t-65 -49.5t-35 -71.5t-10.5 -85.5zM385 1040q0 -37 7.5 -73t27.5 -64.5t56 -46.5t93 -18q60 0 96.5 18t55.5 47t25 65t6 72q0 42 -9 77.5t-30 61t-56.5 40t-89.5 14.5q-52 0 -87 -14.5t-56 -40t-30 -61t-9 -77.5z" />
<glyph unicode="9" d="M71 958q0 112 33.5 200t96.5 148.5t154.5 92t207.5 31.5q122 0 215.5 -41.5t156.5 -128t95.5 -219t32.5 -314.5q0 -375 -137 -561t-389 -186q-91 0 -163.5 19t-126.5 59t-91.5 103t-59.5 150l264 37q20 -75 65.5 -111t114.5 -36q57 0 102 27t77 82t49.5 139.5t18.5 199.5 q-20 -39 -53 -69t-74.5 -50t-88.5 -30.5t-95 -10.5q-92 0 -167 32.5t-128 93.5t-81.5 147.5t-28.5 195.5zM356 956q0 -55 13 -102.5t38 -82t63 -54t87 -19.5q39 0 76.5 14t67 42t47.5 70.5t18 99.5q0 60 -13.5 112.5t-40.5 91t-66 60.5t-90 22q-47 0 -84 -17.5t-63 -50.5 t-39.5 -80t-13.5 -106z" />
<glyph unicode=":" horiz-adv-x="682" d="M197 0v281h288v-281h-288zM197 752v282h288v-282h-288z" />
<glyph unicode=";" horiz-adv-x="682" d="M195 -317q28 35 52.5 74t42.5 80t28 82t10 81h-129v281h288v-215q0 -67 -7.5 -122t-21.5 -101.5t-34 -85.5t-45 -74h-184zM199 752v282h288v-282h-288z" />
<glyph unicode="&#x3c;" horiz-adv-x="1196" d="M86 516v322l1027 391v-228l-833 -325l833 -324v-227z" />
<glyph unicode="=" horiz-adv-x="1196" d="M85 291v221h1027v-221h-1027zM85 842v223h1027v-223h-1027z" />
<glyph unicode="&#x3e;" horiz-adv-x="1196" d="M86 125v227l832 324l-832 325v228l1027 -391v-322z" />
<glyph unicode="?" horiz-adv-x="1251" d="M94 1001q12 89 49.5 167t102.5 136t159.5 92t219.5 34q120 0 214 -28t159.5 -80.5t100 -127.5t34.5 -168q0 -66 -17.5 -116t-46.5 -89.5t-66 -71t-76 -59.5t-76.5 -55t-67.5 -57.5t-49 -67t-21 -84.5h-267q5 85 36.5 145.5t76.5 105.5t96 80.5t94.5 72.5t72 80.5 t28.5 103.5q0 88 -57.5 139t-163.5 51q-51 0 -94 -15.5t-75.5 -43.5t-53.5 -68t-27 -88zM438 0v270h289v-270h-289z" />
<glyph unicode="@" horiz-adv-x="1997" d="M117 461q0 139 31.5 267t91 238t145 200t194 154t238 99t275.5 35q203 0 351.5 -59t245 -159t143 -232t46.5 -279q0 -144 -38 -263.5t-103.5 -205.5t-153 -134t-186.5 -48q-42 0 -77.5 10.5t-60.5 32t-39 54t-14 75.5q0 14 1.5 33t4.5 34h-6q-21 -44 -56 -87t-80.5 -76.5 t-100 -54.5t-113.5 -21q-95 0 -158.5 34t-101.5 89t-54 124t-16 138q0 115 34 225t98 196t157 138.5t211 52.5q102 0 167 -46.5t97 -127.5h6l39 152h156l-117 -506q-17 -79 -27 -141t-10 -99q0 -50 23.5 -71t54.5 -21q59 0 114.5 38t99.5 106t70.5 162t26.5 206 q0 126 -41 234t-121 187t-198 124t-272 45q-133 0 -245 -31.5t-202.5 -88.5t-159 -136t-115 -173.5t-70 -201.5t-23.5 -221q0 -87 17 -168.5t51.5 -152.5t87 -130t123.5 -101t161.5 -65.5t200.5 -23.5q86 0 166 12t153.5 33t141 49.5t128.5 60.5l62 -122q-60 -34 -129 -66 t-150 -56.5t-175 -39.5t-204 -15q-130 0 -240 28.5t-198.5 80t-155.5 123.5t-112 159t-67.5 187t-22.5 207zM692 461q0 -114 48.5 -180t148.5 -66q48 0 95.5 23t89.5 67.5t76.5 110t55.5 149.5q5 18 9.5 39.5t8 42.5t5.5 40t2 34q0 47 -15.5 86.5t-43.5 68t-67 44.5t-87 16 q-55 0 -101 -20.5t-82 -55.5t-63 -81.5t-44.5 -99.5t-26.5 -109t-9 -109z" />
<glyph unicode="A" horiz-adv-x="1479" d="M51 0l514 1409h348l512 -1409h-292l-125 360h-537l-125 -360h-295zM537 582h405l-139 405q-12 35 -23.5 70.5t-20 65t-14 48.5t-6.5 21q-1 -3 -6 -22t-13.5 -48t-20 -64.5t-23.5 -70.5z" />
<glyph unicode="B" horiz-adv-x="1479" d="M137 0v1409h645q125 0 222.5 -21.5t164.5 -65.5t101.5 -110.5t34.5 -156.5q0 -120 -66.5 -202.5t-202.5 -111.5q171 -20 260.5 -107.5t89.5 -231.5q0 -107 -43 -183.5t-117.5 -125t-173.5 -71t-210 -22.5h-705zM432 219h385q58 0 108 9.5t86.5 33t57.5 63.5t21 100 q0 56 -22 94t-60.5 61t-90 33t-111.5 10h-374v-404zM432 841h338q125 0 181.5 43.5t56.5 130.5q0 95 -60.5 135t-179.5 40h-336v-349z" />
<glyph unicode="C" horiz-adv-x="1479" d="M84 711q0 165 42.5 298t128.5 226.5t217.5 144t309.5 50.5q138 0 241.5 -29t179 -81.5t125 -124t77.5 -157.5l-260 -71q-14 45 -43 86.5t-73.5 73.5t-104.5 51.5t-136 19.5q-107 0 -184 -34.5t-126.5 -98.5t-73 -153.5t-23.5 -200.5q0 -110 23.5 -201.5t73.5 -157.5 t128.5 -103t188.5 -37q83 0 143.5 23.5t105 61.5t74 86t48.5 97l257 -97q-31 -76 -81 -149t-125 -129t-178.5 -90.5t-243.5 -34.5q-183 0 -317 54.5t-221.5 152t-130 231.5t-42.5 293z" />
<glyph unicode="D" horiz-adv-x="1479" d="M137 0v1409h510q164 0 301 -41t236 -126t154 -216t55 -311q0 -176 -53 -309.5t-145 -223.5t-217.5 -136t-270.5 -46h-570zM432 228h250q89 0 164.5 31t131 92.5t87 152.5t31.5 211q0 123 -33.5 211t-93.5 144.5t-143.5 83.5t-184.5 27h-209v-953z" />
<glyph unicode="E" horiz-adv-x="1366" d="M137 0v1409h1108v-228h-813v-354h752v-228h-752v-371h854v-228h-1149z" />
<glyph unicode="F" horiz-adv-x="1251" d="M137 0v1409h1039v-228h-744v-436h721v-228h-721v-517h-295z" />
<glyph unicode="G" horiz-adv-x="1593" d="M84 711q0 165 44 298t133.5 226.5t225 144t318.5 50.5q133 0 236.5 -26t181 -74t130 -115.5t83.5 -151.5l-272 -82q-18 44 -48 83.5t-74.5 69t-103 47t-133.5 17.5q-110 0 -190 -34.5t-132 -98.5t-77 -153.5t-25 -200.5q0 -110 25.5 -202t78 -158t132.5 -103t189 -37 q64 0 123 10t109.5 26.5t91 38t66.5 44.5v195h-344v218h614v-518q-48 -49 -116 -93.5t-153 -78t-185.5 -53.5t-213.5 -20q-187 0 -322 54.5t-222 152t-128.5 231.5t-41.5 293z" />
<glyph unicode="H" horiz-adv-x="1479" d="M137 0v1409h295v-561h614v561h295v-1409h-295v604h-614v-604h-295z" />
<glyph unicode="I" horiz-adv-x="569" d="M137 0v1409h295v-1409h-295z" />
<glyph unicode="J" d="M31 382l293 43q10 -59 28 -99.5t43.5 -66t58.5 -37t72 -11.5q88 0 133.5 59t45.5 169v739h-281v231h575v-963q0 -107 -31 -193.5t-91.5 -147t-149 -93t-203.5 -32.5q-106 0 -189 22t-144 70t-100.5 124.5t-59.5 185.5z" />
<glyph unicode="K" horiz-adv-x="1479" d="M137 0v1409h295v-639l635 639h344l-602 -596l651 -813h-348l-506 647l-174 -133v-514h-295z" />
<glyph unicode="L" horiz-adv-x="1251" d="M137 0v1409h295v-1181h756v-228h-1051z" />
<glyph unicode="M" horiz-adv-x="1706" d="M137 0v1409h395l252 -788q10 -31 21.5 -76t22.5 -87q12 -49 26 -102q14 52 27 100q6 21 12 43t12 43t12 40t11 34l248 793h393v-1409h-262v854q0 51 1.5 105t3.5 99q3 53 5 103q-21 -79 -40 -150q-8 -30 -17 -62t-17.5 -62t-16.5 -56t-14 -45l-254 -786h-210l-254 786 q-6 19 -13.5 45t-16 56t-17.5 62t-18 62q-20 71 -42 150q3 -58 6 -114q2 -48 4 -101t2 -92v-854h-262z" />
<glyph unicode="N" horiz-adv-x="1479" d="M137 0v1409h337l623 -1094q-5 42 -9 88q-4 39 -6.5 88t-2.5 99v819h262v-1409h-346l-614 1085q5 -44 9 -88q4 -38 6.5 -82t2.5 -84v-831h-262z" />
<glyph unicode="O" horiz-adv-x="1593" d="M84 711q0 165 46.5 298t137 226.5t223 144t304.5 50.5t304.5 -51t223 -145t137.5 -226.5t47 -296.5q0 -165 -49 -300t-141 -231t-224.5 -148t-299.5 -52q-177 0 -309.5 54.5t-221.5 152t-133.5 231.5t-44.5 293zM381 711q0 -110 26.5 -201.5t78.5 -157.5t129 -103 t178 -37q108 0 186 37.5t128.5 104t74.5 158t24 199.5q0 111 -26.5 200.5t-78.5 153.5t-128.5 98.5t-177.5 34.5q-103 0 -180.5 -34.5t-129.5 -98.5t-78 -153.5t-26 -200.5z" />
<glyph unicode="P" horiz-adv-x="1366" d="M137 0v1409h633q135 0 234 -32.5t164 -91.5t96.5 -141t31.5 -181q0 -91 -30.5 -175.5t-93.5 -149.5t-160 -103.5t-230 -38.5h-350v-496h-295zM432 723h313q66 0 113.5 17t79 48t46.5 74.5t15 95.5q0 109 -65.5 165.5t-196.5 56.5h-305v-457z" />
<glyph unicode="Q" horiz-adv-x="1593" d="M84 711q0 165 46.5 298t137 226.5t223 144t304.5 50.5t304.5 -51t223 -145t137.5 -226.5t47 -296.5q0 -141 -35.5 -259.5t-103 -210t-164.5 -152t-221 -85.5q20 -58 47 -94.5t61 -57t74 -28t86 -7.5q29 0 59 2.5t60 7.5l-2 -202q-54 -12 -113 -20t-129 -8 q-95 0 -166 28.5t-123.5 80t-89 124t-63.5 160.5q-150 14 -262.5 73t-187.5 154t-112.5 221t-37.5 273zM381 711q0 -110 26.5 -202t78.5 -158t129 -103t178 -37q108 0 186 37.5t128.5 104t74.5 158.5t24 200q0 111 -26.5 200.5t-78.5 153.5t-128.5 98.5t-177.5 34.5 q-103 0 -180.5 -34.5t-129.5 -98.5t-78 -153.5t-26 -200.5z" />
<glyph unicode="R" horiz-adv-x="1479" d="M137 0v1409h704q132 0 230.5 -29.5t164.5 -84t98.5 -132t32.5 -174.5q0 -79 -23.5 -144.5t-65 -116.5t-98.5 -85.5t-124 -50.5l381 -592h-332l-327 535h-346v-535h-295zM432 764h386q66 0 113.5 15.5t78 44t45.5 67.5t15 86q0 103 -67.5 153t-192.5 50h-378v-416z" />
<glyph unicode="S" horiz-adv-x="1366" d="M59 367l285 47q12 -47 35 -86t63.5 -67.5t101 -44t146.5 -15.5q150 0 229.5 45.5t79.5 142.5q0 58 -32 95t-85 61t-122 40t-144 31q-60 14 -120 29t-114.5 36t-101.5 50t-81.5 71.5t-54 99.5t-19.5 134q0 105 42 180t116.5 122.5t177.5 69.5t225 22q138 0 236.5 -21.5 t165 -65.5t105 -110.5t56.5 -155.5l-286 -39q-22 91 -89.5 137t-193.5 46q-78 0 -129.5 -13.5t-82 -36.5t-43.5 -53.5t-13 -64.5q0 -52 25 -85.5t70 -56t107.5 -38t137.5 -31.5q66 -14 131 -29.5t124 -36.5t110 -51t88.5 -73.5t59 -103.5t21.5 -142q0 -96 -35 -174.5 t-108.5 -134.5t-188 -86.5t-272.5 -30.5q-140 0 -247 25t-183.5 74t-124 121.5t-68.5 166.5z" />
<glyph unicode="T" horiz-adv-x="1251" d="M23 1181v228h1206v-228h-456v-1181h-295v1181h-455z" />
<glyph unicode="U" horiz-adv-x="1479" d="M123 528v881h295v-858q0 -89 22 -153.5t63 -106t99 -61t129 -19.5q72 0 132.5 20.5t104 63.5t67.5 109t24 157v848h295v-866q0 -145 -47 -251t-131 -175.5t-199.5 -103t-253.5 -33.5q-132 0 -242 31.5t-189.5 98t-124 170.5t-44.5 248z" />
<glyph unicode="V" horiz-adv-x="1366" d="M14 1409h308l290 -905q14 -45 27 -92t24 -86q12 -46 23 -88q10 41 21 86q10 38 23.5 85.5t27.5 94.5l289 905h305l-518 -1409h-299z" />
<glyph unicode="W" horiz-adv-x="1933" d="M2 1409h299l176 -784q15 -64 28 -126t24 -111q12 -57 22 -109q15 74 29 144q6 30 13 62t13.5 63t13 59.5t11.5 51.5l174 750h330l178 -750q6 -24 12 -53.5t12 -61.5l12 -62q6 -32 11 -62q12 -70 24 -141q12 56 25 116q11 51 25 112t28 118l170 784h299l-364 -1409h-350 l-191 815q-9 37 -19.5 88t-19.5 99q-11 55 -20 114q-11 -59 -22 -115q-5 -24 -10 -49.5t-10.5 -50t-10 -46.5t-9.5 -40l-190 -815h-350z" />
<glyph unicode="X" horiz-adv-x="1366" d="M18 0l488 741l-447 668h312l313 -498l313 498h310l-428 -668l469 -741h-310l-354 561l-354 -561h-312z" />
<glyph unicode="Y" horiz-adv-x="1366" d="M35 1409h309l338 -596l342 596h309l-502 -831v-578h-294v578z" />
<glyph unicode="Z" horiz-adv-x="1251" d="M61 0v209l762 969h-686v231h1014v-205l-762 -973h803v-231h-1131z" />
<glyph unicode="[" horiz-adv-x="682" d="M115 -425v1909h542v-190h-276v-1528h276v-191h-542z" />
<glyph unicode="\" horiz-adv-x="569" d="M21 1485h238l291 -1526h-243z" />
<glyph unicode="]" horiz-adv-x="682" d="M25 -234h278v1528h-278v190h542v-1909h-542v191z" />
<glyph unicode="^" horiz-adv-x="1196" d="M45 514l391 895h322l393 -895h-229l-326 752l-324 -752h-227z" />
<glyph unicode="_" d="M-20 -172h1177v-78h-1177v78z" />
<glyph unicode="`" horiz-adv-x="682" d="M66 1459v43h258l251 -288v-31h-169z" />
<glyph unicode="a" d="M60 306q0 96 33.5 161.5t91.5 106t136 59t166 19.5l233 4v55q0 59 -10.5 98.5t-30.5 64.5t-49.5 35.5t-67.5 10.5q-35 0 -62.5 -7t-47.5 -24.5t-32.5 -47t-17.5 -74.5l-293 14q12 71 44 129.5t88.5 101.5t139 66.5t193.5 23.5q101 0 180 -25t134 -74.5t84 -121.5t29 -167 v-394q0 -38 3.5 -68t13 -50.5t27 -31t45.5 -10.5q32 0 62 6v-152q-25 -6 -45 -11t-40 -8t-42.5 -5t-52.5 -2q-106 0 -156.5 52t-60.5 153h-6q-56 -101 -143.5 -157t-212.5 -56q-78 0 -139.5 21.5t-104.5 63t-66 102.5t-23 139zM353 328q0 -77 35.5 -114.5t94.5 -37.5 q54 0 98 23t74.5 60.5t47.5 86.5t17 100v55l-144 -2q-45 -2 -85.5 -7.5t-71 -23t-48.5 -50.5t-18 -90z" />
<glyph unicode="b" horiz-adv-x="1251" d="M135 0q3 35 5.5 99.5t2.5 147.5v1237h281v-414q0 -32 -0.5 -62.5t-1.5 -56.5q-1 -30 -2 -57h4q51 112 140 160t206 48q104 0 179 -41.5t123.5 -116t71.5 -176.5t23 -223q0 -123 -24.5 -226.5t-75.5 -179t-129.5 -117.5t-185.5 -42q-48 0 -96 10t-91 33t-79 60t-62 91h-2 q0 -21 -1.5 -48t-3.5 -52.5t-4.5 -45.5t-4.5 -28h-273zM420 536q0 -106 20 -176t52 -112t74 -59t85 -17q107 0 165 88.5t58 284.5q0 184 -54 273t-167 89q-43 0 -85 -17t-75 -59.5t-53 -114t-20 -180.5z" />
<glyph unicode="c" d="M80 535q0 135 35 240.5t101 178t162.5 110.5t219.5 38q105 0 186.5 -28t140.5 -76.5t95.5 -114.5t50.5 -142l-283 -14q-12 83 -60 132.5t-136 49.5q-113 0 -165 -93t-52 -270q0 -374 221 -374q80 0 134 50.5t67 150.5l282 -13q-10 -75 -45.5 -143.5t-96 -121t-146.5 -84 t-197 -31.5q-129 0 -225.5 40t-160.5 113t-96 175.5t-32 226.5z" />
<glyph unicode="d" horiz-adv-x="1251" d="M84 540q0 123 24.5 226t75.5 177.5t129.5 116.5t186.5 42q53 0 102 -11t91 -34t76 -59t58 -87h2q0 10 -0.5 29.5t-0.5 44.5t-0.5 52t-0.5 52v395h281v-1248q0 -79 3 -140.5t5 -95.5h-272q-2 8 -4.5 28.5t-5 46.5t-4 53t-1.5 48h-4q-49 -105 -136.5 -150.5t-209.5 -45.5 q-102 0 -176.5 42t-123 117t-72 177.5t-23.5 223.5zM377 540q0 -368 221 -368q42 0 84 18t75 61t53.5 115.5t20.5 180.5q0 107 -20 177.5t-52.5 112t-74 58t-84.5 16.5q-54 0 -95.5 -21t-70 -66t-43 -115t-14.5 -169z" />
<glyph unicode="e" d="M80 546q0 155 41.5 261t112 171.5t162.5 94.5t194 29q128 0 218.5 -44.5t148.5 -124.5t85 -191.5t27 -246.5v-8h-694q0 -68 12 -126.5t39 -101t70 -67t104 -24.5q74 0 121 31.5t67 97.5l265 -23q-18 -46 -50.5 -98t-86.5 -95.5t-134.5 -72t-195.5 -28.5 q-117 0 -210.5 34.5t-159.5 105t-101 177t-35 249.5zM377 663h420q-8 131 -63 196.5t-148 65.5q-43 0 -80.5 -14.5t-65 -46t-44.5 -81.5t-19 -120z" />
<glyph unicode="f" horiz-adv-x="682" d="M35 892v190h158v113q0 62 15 114.5t51 91.5t97 61t152 22q48 0 94.5 -5t83.5 -11v-181q-18 4 -40.5 6.5t-41.5 2.5q-39 0 -64.5 -8t-40 -24t-20.5 -40.5t-6 -56.5v-85h213v-190h-213v-892h-280v892h-158z" />
<glyph unicode="g" horiz-adv-x="1251" d="M84 550q0 125 25 226.5t76.5 174.5t130 112.5t186.5 39.5t193.5 -46t133.5 -149h5q0 21 1.5 48.5t3.5 53t4.5 45.5t4.5 27h266q-2 -36 -4 -101t-2 -149v-799q0 -118 -34 -205.5t-99.5 -145.5t-161 -87t-217.5 -29q-107 0 -188.5 21.5t-139 60t-92 92t-47.5 117.5l281 33 q15 -65 64.5 -102t129.5 -37q50 0 91.5 14t71 47.5t46 88.5t16.5 136v57t1 53q1 28 1 54h-2q-49 -105 -137.5 -152t-210.5 -47q-103 0 -177.5 40.5t-123.5 113t-72.5 173t-23.5 221.5zM377 550q0 -175 56 -264t167 -89q42 0 83.5 16.5t74.5 58t53 110.5t20 174 q0 102 -20 170t-52 109t-73.5 58t-83.5 17q-54 0 -95.5 -21t-70.5 -65t-44 -112t-15 -162z" />
<glyph unicode="h" horiz-adv-x="1251" d="M143 0v1484h281v-405q0 -32 -1 -64.5t-2.5 -61t-2.5 -51.5t-2 -36h4q57 124 143 180t205 56q98 0 165.5 -32t110 -88t61.5 -132t19 -164v-686h-280v606q0 63 -10 115.5t-33 90t-60 58.5t-90 21q-51 0 -92.5 -22.5t-71.5 -64t-46.5 -99t-16.5 -126.5v-579h-281z" />
<glyph unicode="i" horiz-adv-x="569" d="M143 0v1082h281v-1082h-281zM143 1277v207h281v-207h-281z" />
<glyph unicode="j" horiz-adv-x="569" d="M-32 -218q13 -2 26 -3t25 -1q39 0 63 8t38 27t19 50t5 77v1142h281v-1210q0 -65 -16 -119t-50.5 -94t-89 -62t-131.5 -22q-56 0 -97.5 2.5t-72.5 6.5v198zM144 1277v207h281v-207h-281z" />
<glyph unicode="k" d="M143 0v1484h281v-850l386 448h302l-380 -422l409 -660h-307l-289 490l-121 -84v-406h-281z" />
<glyph unicode="l" horiz-adv-x="569" d="M143 0v1484h281v-1484h-281z" />
<glyph unicode="m" horiz-adv-x="1821" d="M135 1082h268q2 -12 4 -38.5t4 -58.5t3.5 -64t1.5 -54h4q52 124 129.5 180t185.5 56q124 0 199.5 -60.5t101.5 -175.5h6q29 67 62.5 112t74 72.5t88 39.5t103.5 12q89 0 150.5 -32t100 -88t56 -132t17.5 -164v-687h-279v607q0 63 -8.5 115.5t-28 90t-51 58.5t-76.5 21 q-42 0 -76.5 -21.5t-60 -61t-39.5 -94.5t-16 -122v-593h-279v607q0 63 -8.5 115.5t-28 90t-51 58.5t-76.5 21q-43 0 -78 -22.5t-60.5 -64t-39.5 -99t-14 -126.5v-580h-281v840q0 35 -0.5 72t-2 70.5t-2.5 60t-3 39.5z" />
<glyph unicode="n" horiz-adv-x="1251" d="M135 1082h268q2 -12 4 -38.5t4 -58.5t3.5 -64t1.5 -54h4q57 124 143 180t205 56q98 0 165.5 -32t110 -88t61.5 -132t19 -164v-687h-280v607q0 63 -10 115.5t-33 90t-60 58.5t-90 21q-51 0 -92.5 -22.5t-71.5 -64t-46.5 -99t-16.5 -126.5v-580h-281v840q0 35 -0.5 72 t-2 70.5t-2.5 60t-3 39.5z" />
<glyph unicode="o" horiz-adv-x="1251" d="M80 542q0 121 33.5 223.5t101.5 177.5t171 117t241 42q146 0 249 -42t168.5 -116.5t96 -177t30.5 -224.5q0 -124 -34.5 -227t-103.5 -177.5t-172 -116t-240 -41.5q-132 0 -233 41t-169.5 115t-103.5 177.5t-35 228.5zM375 542q0 -97 17.5 -167t49.5 -115t77 -66.5 t99 -21.5q62 0 110.5 21.5t81.5 66.5t50 115t17 167q0 193 -63 280t-183 87q-124 0 -190 -88t-66 -279z" />
<glyph unicode="p" horiz-adv-x="1251" d="M135 1082h273q2 -7 4.5 -27t4 -46t2.5 -54t1 -49h4q51 107 140 153t206 46q103 0 178 -42t123.5 -116t72 -176.5t23.5 -224.5q0 -123 -24.5 -227t-75.5 -179t-129.5 -117.5t-185.5 -42.5q-48 0 -95.5 10t-90.5 32.5t-79.5 59t-62.5 90.5h-6q1 -5 2 -25t2 -46.5t1.5 -56 t0.5 -54.5v-415h-281v1258q0 83 -2.5 148t-5.5 101zM420 538q0 -106 20 -176.5t52.5 -112.5t73.5 -59.5t83 -17.5q54 0 96 21.5t70.5 67t43.5 116.5t15 169q0 185 -56 274.5t-167 89.5q-42 0 -83.5 -17.5t-74 -60t-53 -114t-20.5 -180.5z" />
<glyph unicode="q" horiz-adv-x="1251" d="M84 540q0 123 25 226.5t76.5 178t130 116.5t186.5 42t193.5 -46t133.5 -149q0 21 1.5 48.5t4 53t5 45.5t4.5 27h270q-2 -36 -4 -101t-2 -148v-1258h-279v450q0 28 1 55t2 50q1 26 2 50h-2q-49 -105 -140 -152.5t-213 -47.5q-102 0 -176.5 42t-123 117t-72 177.5 t-23.5 223.5zM377 540q0 -368 223 -368q42 0 83.5 18t74.5 61t53 115t20 180t-20 178t-52 111.5t-73.5 58t-83.5 16.5q-54 0 -95.5 -21t-70.5 -66t-44 -115t-15 -168z" />
<glyph unicode="r" horiz-adv-x="797" d="M135 1082h268q2 -12 4 -41.5t4 -64.5t3.5 -69.5t1.5 -55.5h4q21 59 42 105.5t49.5 79t68.5 50t99 17.5q25 0 49.5 -4.5t37.5 -10.5v-235q-27 6 -54.5 10.5t-65.5 4.5q-105 0 -163.5 -85t-58.5 -252v-531h-281v828q0 35 -0.5 74t-2 74.5t-2.5 64t-3 41.5z" />
<glyph unicode="s" d="M72 270l247 37q12 -45 33 -73t52 -43t72.5 -20t94.5 -5q48 0 89.5 5.5t72 19t47.5 38t17 61.5q0 42 -24.5 66.5t-67 40t-100 27t-122.5 26.5q-68 15 -134 36t-118 57t-84 91.5t-32 140.5q0 77 30 137.5t88 103t143.5 65t196.5 22.5q88 0 164 -16.5t136 -52t100.5 -90.5 t56.5 -133l-249 -26q-7 39 -25 64.5t-44.5 40.5t-61.5 20.5t-77 5.5q-100 0 -150 -25.5t-50 -85.5q0 -37 20.5 -59t58 -36.5t89 -25t112.5 -25.5q75 -16 147.5 -37.5t129 -59t91 -96.5t34.5 -150q0 -78 -32.5 -140t-94.5 -105.5t-152 -67t-205 -23.5q-103 0 -186 15 t-145.5 49.5t-104.5 89.5t-63 136z" />
<glyph unicode="t" horiz-adv-x="682" d="M25 892v190h151l88 254h176v-254h205v-190h-205v-562q0 -79 30 -116.5t93 -37.5q26 0 47 4t47 10v-174q-52 -17 -110 -25.5t-127 -8.5q-124 0 -191 67.5t-67 204.5v638h-137z" />
<glyph unicode="u" horiz-adv-x="1251" d="M127 395v687h281v-607q0 -63 10 -115.5t33 -90t59.5 -58.5t89.5 -21q51 0 92.5 22.5t71.5 64t46.5 99t16.5 126.5v580h281v-840q0 -34 0.5 -71.5t2 -71t3 -60t2.5 -39.5h-268q-1 12 -3.5 38.5t-4.5 58.5l-2 64q-2 32 -2 54h-5q-56 -123 -142.5 -179t-205.5 -56 q-97 0 -165 32t-110.5 87.5t-61.5 131.5t-19 164z" />
<glyph unicode="v" d="M8 1082h297l189 -605q9 -30 19 -63.5t19 -66.5t17.5 -64t15.5 -56q6 24 15 54.5t18.5 63.5t20 66t20.5 63l197 608h294l-399 -1082h-336z" />
<glyph unicode="w" horiz-adv-x="1593" d="M-6 1082h264l137 -636q6 -27 13 -60.5t13 -62.5q7 -34 15 -68q7 38 14 74q6 31 13 63t12 54l170 636h301l166 -636q7 -26 14 -59t13 -62q7 -34 14 -70q8 36 15 70q6 29 13 62t13 59l143 636h260l-284 -1082h-297l-172 660q-8 31 -16 69.5t-15 72.5l-16 80l-18 -80 q-8 -34 -17 -73t-17 -71l-174 -658h-297z" />
<glyph unicode="x" d="M14 0l396 559l-377 523h303l231 -354l230 354h305l-377 -520l399 -562h-305l-252 392l-254 -392h-299z" />
<glyph unicode="y" d="M16 1082h297l170 -507q4 -11 12.5 -37t19 -59.5t21.5 -70.5t21 -70.5t17 -59.5t10 -37q3 11 9.5 36.5t15 58t18.5 68.5t19 69t16.5 59.5t11.5 38.5l160 511h294l-428 -1139q-39 -95 -79 -164t-88.5 -114.5t-109 -67.5t-140.5 -22q-44 0 -90 3t-87 10v200q20 -3 48.5 -5.5 t48.5 -2.5q41 0 73 9t58 30t48.5 56t43.5 88l18 48z" />
<glyph unicode="z" horiz-adv-x="1024" d="M68 0v199l540 680h-499v203h809v-201l-537 -676h586v-205h-899z" />
<glyph unicode="{" horiz-adv-x="797" d="M33 431v195q53 2 95.5 14.5t72 39.5t45.5 70.5t16 106.5v328q0 146 78.5 222.5t216.5 76.5h197v-190h-58q-91 0 -131.5 -52t-40.5 -157v-301q0 -51 -16.5 -93.5t-44.5 -74.5t-66 -53.5t-80 -30.5v-4q43 -10 81 -31.5t66 -54t44 -74t16 -92.5v-301q0 -106 40.5 -157.5 t131.5 -51.5h58v-191h-197q-69 0 -123.5 21t-93 59.5t-58.5 94t-20 124.5v328q0 63 -16 106.5t-46 70.5t-72.5 39t-94.5 13z" />
<glyph unicode="|" horiz-adv-x="573" d="M156 -455v1939h262v-1939h-262z" />
<glyph unicode="}" horiz-adv-x="797" d="M43 -234h57q93 0 132.5 51.5t39.5 157.5v301q0 51 16.5 92.5t44.5 74t65.5 54t80.5 31.5v4q-42 9 -79.5 30.5t-66 53.5t-45 74.5t-16.5 93.5v301q0 105 -39.5 157t-132.5 52h-57v190h197q138 0 216.5 -76.5t78.5 -222.5v-328q0 -63 16.5 -106.5t46.5 -70.5t72.5 -39.5 t95.5 -14.5v-195q-53 -1 -95.5 -13t-72.5 -39t-46.5 -70.5t-16.5 -106.5v-328q0 -69 -20 -124.5t-58.5 -94t-93 -59.5t-123.5 -21h-197v191z" />
<glyph unicode="~" horiz-adv-x="1196" d="M81 543v213q51 38 119 61t152 23q41 0 82 -6.5t81 -17t79 -24t77 -26.5q45 -16 98.5 -29.5t101.5 -13.5q68 0 132 25t116 67v-219q-32 -22 -62.5 -37.5t-62 -25t-66.5 -13.5t-76 -4q-75 0 -147.5 21t-147.5 47q-66 23 -120.5 35t-100.5 12q-39 0 -72.5 -6t-64 -17.5 t-59.5 -27.5t-59 -37z" />
<glyph unicode="&#xa1;" horiz-adv-x="682" d="M194 -327l32 981h230l32 -981h-294zM200 812v270h288v-270h-288z" />
<glyph unicode="&#xa2;" d="M51 686q0 117 30.5 211.5t88.5 163.5t143 110.5t193 53.5v184h162v-184q90 -10 161.5 -41t123.5 -78t84.5 -108t45.5 -130l-282 -14q-7 42 -23.5 76.5t-43.5 60t-64 39.5l-2 1v-678q37 14 68 41q59 55 73 155l283 -12q-10 -69 -41.5 -132.5t-84.5 -114.5t-127.5 -85 t-170.5 -45v-191h-162v189q-114 11 -199.5 54t-142.5 111.5t-85 160.5t-28 202zM334 696q0 -174 66 -265q42 -57 106 -79v681q-67 -21 -108 -81q-64 -92 -64 -256z" />
<glyph unicode="&#xa3;" d="M21 604v170h178v248q0 92 24 167.5t75.5 129t132 82.5t194.5 29q96 0 164 -20.5t115.5 -58.5t78 -91.5t49.5 -120.5l-233 -47q-21 77 -62 112t-107 35q-91 0 -131 -57.5t-40 -182.5v-225h286v-170h-286v-90q0 -59 -12.5 -105.5t-35.5 -83t-57 -64.5t-77 -52h380 q104 0 157.5 49.5t70.5 143.5l233 -39q-13 -73 -43 -139t-79 -115.5t-116 -79t-154 -29.5h-694v205q39 22 72 48t56 61.5t36 83.5t13 114v92h-188z" />
<glyph unicode="&#xa4;" d="M57 328l135 137q-28 48 -43 103.5t-15 115.5t15.5 116t44.5 105l-133 133l157 156l131 -133q48 28 104 43.5t116 15.5t115.5 -15t103.5 -44l135 135l158 -158l-136 -135q29 -48 44.5 -103.5t15.5 -115.5t-15 -114.5t-43 -102.5l134 -133l-158 -160l-133 135 q-100 -59 -221 -59q-60 0 -116 14.5t-104 42.5l-135 -137zM360 686q0 -43 16.5 -81t45 -66.5t66.5 -45t81 -16.5t80.5 16.5t66 45t45 66.5t16.5 81t-16.5 81t-45 66.5t-66 45t-80.5 16.5t-81 -16.5t-66.5 -45t-45 -66.5t-16.5 -81z" />
<glyph unicode="&#xa5;" d="M8 1409h289l270 -596l274 596h289l-364 -718h276v-146h-338v-162h338v-147h-338v-236h-272v236h-336v147h336l2 162h-338v146h276z" />
<glyph unicode="&#xa6;" horiz-adv-x="573" d="M156 324h262v-779h-262v779zM156 676v778h262v-778h-262z" />
<glyph unicode="&#xa7;" d="M53 59l237 37q11 -45 34 -75t57 -48t78 -25t97 -7q122 0 185 32.5t63 112.5q0 45 -21 74t-63 49.5t-105 37t-147 36.5q-63 15 -130 37.5t-121.5 58.5t-90 89.5t-35.5 131.5q0 49 15 89t43 71.5t67.5 55.5t87.5 40q-38 16 -72.5 40.5t-60 57t-40.5 72.5t-15 88 q0 149 117.5 231t341.5 82q87 0 163.5 -15.5t136.5 -48.5t100.5 -85t55.5 -125l-239 -25q-7 34 -26.5 58.5t-48 40t-65 23t-77.5 7.5q-112 0 -164.5 -29.5t-52.5 -94.5q0 -39 23 -65.5t62 -45.5t90.5 -32.5t108.5 -26.5q85 -19 160.5 -43t131.5 -61t89 -91t33 -134 q0 -44 -13 -84.5t-38.5 -75t-62 -61.5t-83.5 -42q41 -18 74.5 -42t57 -54.5t36.5 -70t13 -89.5q0 -78 -29 -141.5t-89 -108.5t-151 -69.5t-215 -24.5q-103 0 -186.5 15t-147 49t-106 89t-63.5 135zM333 627q0 -39 24 -65.5t64.5 -45t93 -32t108.5 -26.5q41 2 77 10.5 t62 25.5t41 43t15 63q0 39 -16 66t-51.5 47.5t-91 36t-133.5 30.5q-93 -11 -143 -47.5t-50 -105.5z" />
<glyph unicode="&#xa8;" horiz-adv-x="682" d="M16 1199v219h214v-219h-214zM450 1199v219h217v-219h-217z" />
<glyph unicode="&#xa9;" horiz-adv-x="1509" d="M32 707q0 100 26 192t73 172.5t113 146.5t146.5 113t172.5 73t192 26q150 0 281.5 -57t230 -155t155 -229.5t56.5 -281.5q0 -100 -26 -192.5t-73 -173t-112.5 -146t-146 -112.5t-173 -73t-192.5 -26q-99 0 -191.5 26t-172.5 73t-146.5 112.5t-113.5 146t-73 173 t-26 192.5zM147 707q0 -127 48 -238t130.5 -194t193 -131t236.5 -48q127 0 238 48t194 131t131 194t48 238q0 126 -48 236.5t-131 193t-194 130.5t-238 48q-84 0 -161.5 -22t-145.5 -61.5t-123 -95t-95 -123t-61.5 -145t-21.5 -161.5zM364 709q0 96 24 173t73 130.5 t123.5 82.5t174.5 29q78 0 136 -18.5t99.5 -50t70 -73t47.5 -87.5l-156 -41q-10 24 -26 47t-39.5 41.5t-54.5 29.5t-72 11q-58 0 -100 -19.5t-68.5 -55.5t-39 -86.5t-12.5 -112.5t13.5 -114t41.5 -89.5t70 -58.5t99 -21q41 0 73 13t56 34t40.5 46.5t26.5 49.5l160 -47 q-20 -43 -48.5 -85.5t-70.5 -76.5t-100 -54.5t-137 -20.5q-104 0 -180 31.5t-126 88t-74 134.5t-24 170z" />
<glyph unicode="&#xaa;" horiz-adv-x="758" d="M45 927q0 60 23 100t62 64.5t90.5 35t108.5 11.5l147 2v42q0 35 -8 58t-22 36.5t-33 19t-41 5.5q-21 0 -39.5 -4t-33.5 -14.5t-25.5 -28.5t-13.5 -47l-190 9q8 43 29.5 80t59 64.5t90.5 43t122 15.5q65 0 117.5 -14t90.5 -43.5t58.5 -73.5t20.5 -104v-237q0 -48 9 -72.5 t42 -24.5q4 0 11 0.5t14 1.5t13.5 1.5t10.5 1.5v-109q-29 -8 -60.5 -13t-58.5 -5q-71 0 -111.5 36.5t-45.5 97.5h-3q-34 -65 -89.5 -101t-132.5 -36q-97 0 -154.5 52.5t-57.5 149.5zM234 941q0 -41 23 -63t71 -22q35 0 62.5 15t46.5 38t29 51.5t10 56.5v27l-92 -2 q-31 -1 -58 -4.5t-47.5 -14t-32.5 -30t-12 -52.5z" />
<glyph unicode="&#xab;" d="M92 502v71l258 367h236v-37l-254 -366l256 -361v-35h-238zM551 502v71l256 367h238v-37l-254 -366l256 -361v-35h-240z" />
<glyph unicode="&#xac;" horiz-adv-x="1196" d="M84 569v224h1027v-652h-224v428h-803z" />
<glyph unicode="&#xad;" horiz-adv-x="682" d="M80 409v244h520v-244h-520z" />
<glyph unicode="&#xae;" horiz-adv-x="1509" d="M32 707q0 100 26 192t73 172.5t113 146.5t146.5 113t172.5 73t192 26q150 0 281.5 -57t230 -155t155 -229.5t56.5 -281.5q0 -100 -26 -192.5t-73 -173t-112.5 -146t-146 -112.5t-173 -73t-192.5 -26q-99 0 -191.5 26t-172.5 73t-146.5 112.5t-113.5 146t-73 173 t-26 192.5zM147 707q0 -127 48 -238t130.5 -194t193 -131t236.5 -48q127 0 238 48t194 131t131 194t48 238q0 126 -48 236.5t-131 193t-194 130.5t-238 48q-84 0 -161.5 -22t-145.5 -61.5t-123 -95t-95 -123t-61.5 -145t-21.5 -161.5zM450 297v815h330q153 0 229 -64.5 t76 -177.5q0 -94 -48 -153t-126 -84l213 -336h-201l-178 313h-117v-313h-178zM628 739h144q66 0 99.5 35.5t33.5 93.5q0 57 -37.5 87t-106.5 30h-133v-246z" />
<glyph unicode="&#xaf;" horiz-adv-x="1131" d="M-17 1452v94h1165v-94h-1165z" />
<glyph unicode="&#xb0;" horiz-adv-x="819" d="M90 1110q0 67 25 124.5t68.5 100t102 66.5t124.5 24t124.5 -24t102 -66.5t69 -100t25.5 -124.5q0 -66 -25.5 -123.5t-69 -100t-102 -67t-124.5 -24.5t-124.5 24.5t-102 67t-68.5 100t-25 123.5zM244 1110q0 -34 13 -64.5t35.5 -53.5t52.5 -36.5t65 -13.5t64.5 13.5 t51.5 36.5t34.5 53.5t12.5 64.5q0 35 -12.5 65.5t-34.5 53t-51.5 35t-64.5 12.5t-65 -12.5t-52.5 -35t-35.5 -53t-13 -65.5z" />
<glyph unicode="&#xb1;" horiz-adv-x="1124" d="M49 0v223h1027v-223h-1027zM49 707v223h401v340h224v-340h402v-223h-402v-341h-224v341h-401z" />
<glyph unicode="&#xb2;" horiz-adv-x="682" d="M51 815q25 53 62.5 93.5t79.5 72.5t84 59t75.5 52.5t54.5 53.5t21 62q0 42 -19.5 66.5t-61.5 24.5q-85 0 -95 -98l-194 5q6 46 27.5 86t57.5 70t87 47t117 17q71 0 123.5 -16t87 -44t51.5 -66.5t17 -83.5q0 -53 -22 -93t-56 -72t-75.5 -58.5t-80 -52t-70 -51.5t-45.5 -57 h362v-138h-586z" />
<glyph unicode="&#xb3;" horiz-adv-x="682" d="M44 892l189 12q5 -45 32.5 -69t81.5 -24q49 0 75.5 23.5t26.5 72.5q0 31 -13.5 49.5t-34 28t-45 12.5t-46.5 3h-56v126h51q23 0 45.5 4t40.5 14t29.5 27.5t11.5 44.5q0 39 -23 61t-66 22q-42 0 -67.5 -22t-30.5 -67l-186 12q6 51 31 89.5t63.5 64t88 38t106.5 12.5 q68 0 119 -14.5t84.5 -40t50.5 -60t17 -73.5q0 -64 -36.5 -109.5t-115.5 -61.5v-2q45 -5 77.5 -20.5t53 -38.5t30.5 -51.5t10 -59.5q0 -99 -75 -155t-213 -56q-84 0 -140.5 18t-92 47.5t-52 66.5t-21.5 76z" />
<glyph unicode="&#xb4;" horiz-adv-x="682" d="M87 1183v31l252 288h258v-43l-340 -276h-170z" />
<glyph unicode="&#xb5;" horiz-adv-x="1180" d="M134 -426v1508h281v-605q0 -64 8 -116t28 -89.5t53.5 -58t85.5 -20.5q50 0 84 22.5t55 63t30 98t9 127.5v578h281v-840q0 -34 0.5 -70.5t2 -70t3 -60.5t2.5 -41h-268q-3 23 -8 62t-5 82h-3q-19 -49 -40.5 -81t-46 -50.5t-53.5 -25.5t-62 -7q-52 0 -92.5 24t-63.5 66h-4 q3 -32 3.5 -59.5t0.5 -55.5v-381h-281z" />
<glyph unicode="&#xb6;" d="M71 1049q0 84 25 150.5t72.5 113t116.5 71.5t157 25h629v-143h-131v-1530h-156v1530h-195v-1530h-155v958q-81 0 -147.5 22.5t-114.5 66.5t-74.5 111t-26.5 155z" />
<glyph unicode="&#xb7;" horiz-adv-x="682" d="M141 531v305h288v-305h-288z" />
<glyph unicode="&#xb8;" horiz-adv-x="682" d="M96 -301q25 -5 46 -6t38 -1q75 0 106 18.5t31 50.5q0 35 -28 52t-94 17h-25.5t-26.5 -2l62 172h143l-33 -82q94 -5 139.5 -46t45.5 -107q0 -39 -15.5 -74t-51 -60.5t-93.5 -40.5t-143 -15q-45 0 -101 6v118z" />
<glyph unicode="&#xb9;" horiz-adv-x="682" d="M82 694v121h184v468l-173 -108v122l180 117h175v-599h170v-121h-536z" />
<glyph unicode="&#xba;" horiz-adv-x="748" d="M45 1073q0 75 20.5 138.5t62 109.5t104.5 72t147 26q88 0 151.5 -26t104 -72t59.5 -109.5t19 -138.5q0 -77 -21.5 -141t-64 -110t-105.5 -71.5t-147 -25.5q-80 0 -141.5 25.5t-103.5 71t-63.5 109.5t-21.5 142zM243 1073q0 -60 9.5 -100t27 -64t41.5 -34t53 -10 q33 0 59 10t43.5 34t27 64t9.5 100q0 59 -8.5 98t-25 62.5t-41 33t-57.5 9.5t-58.5 -10t-43 -33.5t-27 -62.5t-9.5 -97z" />
<glyph unicode="&#xbb;" d="M93 141v35l256 361l-254 366v37h238l256 -367v-71l-256 -361h-240zM552 141v35l256 361l-254 366v37h236l258 -367v-71l-258 -361h-238z" />
<glyph unicode="&#xbc;" horiz-adv-x="1708" d="M94 694v121h184v468l-173 -108v122l180 117h175v-599h170v-121h-536zM343 0l895 1409h201l-895 -1409h-201zM981 141v148l316 432h211v-440h103v-140h-103v-140h-183v140h-344zM1123 281h202v194q0 8 0.5 22t1 30t1.5 31t1 25q-3 -4 -11.5 -19.5t-19 -33.5t-20.5 -33.5 t-14 -21.5z" />
<glyph unicode="&#xbd;" horiz-adv-x="1708" d="M94 694v121h184v468l-173 -108v122l180 117h175v-599h170v-121h-536zM323 0l895 1409h201l-895 -1409h-201zM1024 120q25 53 62.5 93.5t79.5 72.5t84 59t75.5 52.5t54.5 53.5t21 62q0 42 -19.5 66.5t-61.5 24.5q-85 0 -95 -98l-194 5q6 46 27.5 86t57.5 70t87 47t117 17 q71 0 123.5 -16t87 -44t51.5 -66.5t17 -83.5q0 -53 -22 -93t-56 -72t-75.5 -58.5t-80 -52t-70 -51.5t-45.5 -57h362v-138h-586z" />
<glyph unicode="&#xbe;" horiz-adv-x="1708" d="M103 892l189 12q5 -45 32.5 -69t81.5 -24q49 0 75.5 23.5t26.5 72.5q0 31 -13.5 49.5t-34 28t-45 12.5t-46.5 3h-56v126h51q23 0 45.5 4t40.5 14t29.5 27.5t11.5 44.5q0 39 -23 61t-66 22q-42 0 -67.5 -22t-30.5 -67l-186 12q6 51 31 89.5t63.5 64t88 38t106.5 12.5 q68 0 119 -14.5t84.5 -40t50.5 -60t17 -73.5q0 -64 -36.5 -109.5t-115.5 -61.5v-2q45 -5 77.5 -20.5t53 -38.5t30.5 -51.5t10 -59.5q0 -99 -75 -155t-213 -56q-84 0 -140.5 18t-92 47.5t-52 66.5t-21.5 76zM343 0l895 1409h201l-895 -1409h-201zM981 141v148l316 432h211 v-440h103v-140h-103v-140h-183v140h-344zM1123 281h202v194q0 8 0.5 22t1 30t1.5 31t1 25q-3 -4 -11.5 -19.5t-19 -33.5t-20.5 -33.5t-14 -21.5z" />
<glyph unicode="&#xbf;" horiz-adv-x="1251" d="M114 56q0 66 17.5 116t46.5 89.5t66 71t76 59.5t76.5 55t67.5 57.5t49 67t21 84.5h267q-5 -85 -36.5 -145t-76.5 -105.5t-96 -81t-94.5 -72.5t-72 -80t-28.5 -104q0 -88 57.5 -139t163.5 -51q51 0 94 15.5t75.5 43.5t53.5 68t27 88l285 -12q-12 -89 -49.5 -167 t-102.5 -136t-159.5 -92t-219.5 -34q-120 0 -214 28t-159.5 80.5t-100 127.5t-34.5 168zM520 812v270h289v-270h-289z" />
<glyph unicode="&#xc0;" horiz-adv-x="1479" d="M51 0l514 1409h348l512 -1409h-292l-125 360h-537l-125 -360h-295zM429 1772v43h258l251 -254v-31h-169zM537 582h405l-139 405q-12 35 -23.5 70.5t-20 65t-14 48.5t-6.5 21q-1 -3 -6 -22t-13.5 -48t-20 -64.5t-23.5 -70.5z" />
<glyph unicode="&#xc1;" horiz-adv-x="1479" d="M51 0l514 1409h348l512 -1409h-292l-125 360h-537l-125 -360h-295zM537 582h405l-139 405q-12 35 -23.5 70.5t-20 65t-14 48.5t-6.5 21q-1 -3 -6 -22t-13.5 -48t-20 -64.5t-23.5 -70.5zM573 1530v31l252 254h258v-43l-340 -242h-170z" />
<glyph unicode="&#xc2;" horiz-adv-x="1479" d="M51 0l514 1409h348l512 -1409h-292l-125 360h-537l-125 -360h-295zM370 1530v29l258 276h229l250 -276v-29h-159l-203 151h-4l-211 -151h-160zM537 582h405l-139 405q-12 35 -23.5 70.5t-20 65t-14 48.5t-6.5 21q-1 -3 -6 -22t-13.5 -48t-20 -64.5t-23.5 -70.5z" />
<glyph unicode="&#xc3;" horiz-adv-x="1479" d="M51 0l514 1409h348l512 -1409h-292l-125 360h-537l-125 -360h-295zM348 1530q3 45 11 96t31.5 95t66.5 73t116 29q45 0 90 -19t87 -42.5t78.5 -42.5t65.5 -19q25 0 41.5 8.5t28 24.5t18 39t11.5 51h135q-2 -45 -10 -96t-31 -95t-66 -73t-116 -29q-44 0 -88.5 19 t-86.5 42.5t-79.5 42.5t-67.5 19q-26 0 -43 -8.5t-27.5 -24.5t-16.5 -38.5t-11 -51.5h-137zM537 582h405l-139 405q-12 35 -23.5 70.5t-20 65t-14 48.5t-6.5 21q-1 -3 -6 -22t-13.5 -48t-20 -64.5t-23.5 -70.5z" />
<glyph unicode="&#xc4;" horiz-adv-x="1479" d="M51 0l514 1409h348l512 -1409h-292l-125 360h-537l-125 -360h-295zM414 1530v219h194v-219h-194zM537 582h405l-139 405q-12 35 -23.5 70.5t-20 65t-14 48.5t-6.5 21q-1 -3 -6 -22t-13.5 -48t-20 -64.5t-23.5 -70.5zM868 1530v219h197v-219h-197z" />
<glyph unicode="&#xc5;" horiz-adv-x="1479" d="M51 0l514 1409h348l512 -1409h-292l-125 360h-537l-125 -360h-295zM485 1552q0 52 20 98.5t54.5 81t81 54.5t98.5 20t98.5 -20t81 -54.5t54.5 -81t20 -98.5q0 -53 -20 -99.5t-54.5 -81t-81 -54t-98.5 -19.5t-98.5 19.5t-81 54t-54.5 81t-20 99.5zM537 582h405l-139 405 q-12 35 -23.5 70.5t-20 65t-14 48.5t-6.5 21q-1 -3 -6 -22t-13.5 -48t-20 -64.5t-23.5 -70.5zM614 1552q0 -27 9.5 -50.5t26.5 -40.5t40 -27t49 -10t49.5 10t40.5 27t27 40.5t10 50.5q0 26 -10 48.5t-27 39.5t-40.5 27t-49.5 10t-49 -10t-40 -27t-26.5 -39.5t-9.5 -48.5z " />
<glyph unicode="&#xc6;" horiz-adv-x="2048" d="M4 0l700 1409h1223v-227h-701v-355h639v-221h-639v-379h742v-227h-1037v360h-450l-172 -360h-305zM583 582h348v610h-61q-4 -9 -17 -37t-28 -61.5t-29.5 -64.5t-21.5 -46z" />
<glyph unicode="&#xc7;" horiz-adv-x="1479" d="M84 711q0 165 42.5 298t128.5 226.5t217.5 144t309.5 50.5q138 0 241.5 -29t179 -81.5t125 -124t77.5 -157.5l-260 -71q-14 45 -43 86.5t-73.5 73.5t-104.5 51.5t-136 19.5q-107 0 -184 -34.5t-126.5 -98.5t-73 -153.5t-23.5 -200.5q0 -110 23.5 -201.5t73.5 -157.5 t128.5 -103t188.5 -37q83 0 143.5 23.5t105 61.5t74 86t48.5 97l257 -97q-31 -76 -81 -149t-125 -129t-178.5 -90.5t-243.5 -34.5q-183 0 -317 54.5t-221.5 152t-130 231.5t-42.5 293zM585 -301q25 -5 46 -6t38 -1q75 0 106 18.5t31 50.5q0 35 -28 52t-94 17h-25.5t-26.5 -2 l62 172h143l-33 -82q94 -5 139.5 -46t45.5 -107q0 -39 -15.5 -74t-51 -60.5t-93.5 -40.5t-143 -15q-45 0 -101 6v118z" />
<glyph unicode="&#xc8;" horiz-adv-x="1366" d="M137 0v1409h1108v-228h-813v-354h752v-228h-752v-371h854v-228h-1149zM396 1772v43h258l251 -254v-31h-169z" />
<glyph unicode="&#xc9;" horiz-adv-x="1366" d="M137 0v1409h1108v-228h-813v-354h752v-228h-752v-371h854v-228h-1149zM517 1530v31l252 254h258v-43l-340 -242h-170z" />
<glyph unicode="&#xca;" horiz-adv-x="1366" d="M137 0v1409h1108v-228h-813v-354h752v-228h-752v-371h854v-228h-1149zM344 1530v29l258 276h229l250 -276v-29h-159l-203 151h-4l-211 -151h-160z" />
<glyph unicode="&#xcb;" horiz-adv-x="1366" d="M137 0v1409h1108v-228h-813v-354h752v-228h-752v-371h854v-228h-1149zM386 1530v219h194v-219h-194zM840 1530v219h197v-219h-197z" />
<glyph unicode="&#xcc;" horiz-adv-x="569" d="M-40 1772v43h258l251 -254v-31h-169zM137 0v1409h295v-1409h-295z" />
<glyph unicode="&#xcd;" horiz-adv-x="569" d="M104 1530v31l252 254h258v-43l-340 -242h-170zM137 0v1409h295v-1409h-295z" />
<glyph unicode="&#xce;" horiz-adv-x="569" d="M-85 1530v29l258 276h229l250 -276v-29h-159l-203 151h-4l-211 -151h-160zM137 0v1409h295v-1409h-295z" />
<glyph unicode="&#xcf;" horiz-adv-x="569" d="M-41 1530v219h194v-219h-194zM137 0v1409h295v-1409h-295zM413 1530v219h197v-219h-197z" />
<glyph unicode="&#xd0;" horiz-adv-x="1479" d="M8 594v219h129v596h510q164 0 301 -41t236 -126t154 -216t55 -311q0 -176 -53 -309.5t-145 -223.5t-217.5 -136t-270.5 -46h-570v594h-129zM432 231h250q89 0 164.5 30.5t131 91.5t87 151.5t31.5 210.5q0 123 -33.5 210.5t-93.5 143.5t-143.5 82.5t-184.5 26.5h-209v-365 h356v-219h-356v-363z" />
<glyph unicode="&#xd1;" horiz-adv-x="1479" d="M137 0v1409h337l623 -1094q-5 42 -9 88q-4 39 -6.5 88t-2.5 99v819h262v-1409h-346l-614 1085q5 -44 9 -88q4 -38 6.5 -82t2.5 -84v-831h-262zM349 1530q3 45 11 96t31.5 95t66.5 73t116 29q45 0 90 -19t87 -42.5t78.5 -42.5t65.5 -19q25 0 41.5 8.5t28 24.5t18 39 t11.5 51h135q-2 -45 -10 -96t-31 -95t-66 -73t-116 -29q-44 0 -88.5 19t-86.5 42.5t-79.5 42.5t-67.5 19q-26 0 -43 -8.5t-27.5 -24.5t-16.5 -38.5t-11 -51.5h-137z" />
<glyph unicode="&#xd2;" horiz-adv-x="1593" d="M84 711q0 165 46.5 298t137 226.5t223 144t304.5 50.5t304.5 -51t223 -145t137.5 -226.5t47 -296.5q0 -165 -49 -300t-141 -231t-224.5 -148t-299.5 -52q-177 0 -309.5 54.5t-221.5 152t-133.5 231.5t-44.5 293zM381 711q0 -110 26.5 -201.5t78.5 -157.5t129 -103 t178 -37q108 0 186 37.5t128.5 104t74.5 158t24 199.5q0 111 -26.5 200.5t-78.5 153.5t-128.5 98.5t-177.5 34.5q-103 0 -180.5 -34.5t-129.5 -98.5t-78 -153.5t-26 -200.5zM547 1772v43h258l251 -254v-31h-169z" />
<glyph unicode="&#xd3;" horiz-adv-x="1593" d="M84 711q0 165 46.5 298t137 226.5t223 144t304.5 50.5t304.5 -51t223 -145t137.5 -226.5t47 -296.5q0 -165 -49 -300t-141 -231t-224.5 -148t-299.5 -52q-177 0 -309.5 54.5t-221.5 152t-133.5 231.5t-44.5 293zM381 711q0 -110 26.5 -201.5t78.5 -157.5t129 -103 t178 -37q108 0 186 37.5t128.5 104t74.5 158t24 199.5q0 111 -26.5 200.5t-78.5 153.5t-128.5 98.5t-177.5 34.5q-103 0 -180.5 -34.5t-129.5 -98.5t-78 -153.5t-26 -200.5zM625 1530v31l252 254h258v-43l-340 -242h-170z" />
<glyph unicode="&#xd4;" horiz-adv-x="1593" d="M84 711q0 165 46.5 298t137 226.5t223 144t304.5 50.5t304.5 -51t223 -145t137.5 -226.5t47 -296.5q0 -165 -49 -300t-141 -231t-224.5 -148t-299.5 -52q-177 0 -309.5 54.5t-221.5 152t-133.5 231.5t-44.5 293zM381 711q0 -110 26.5 -201.5t78.5 -157.5t129 -103 t178 -37q108 0 186 37.5t128.5 104t74.5 158t24 199.5q0 111 -26.5 200.5t-78.5 153.5t-128.5 98.5t-177.5 34.5q-103 0 -180.5 -34.5t-129.5 -98.5t-78 -153.5t-26 -200.5zM426 1530v29l258 276h229l250 -276v-29h-159l-203 151h-4l-211 -151h-160z" />
<glyph unicode="&#xd5;" horiz-adv-x="1593" d="M84 711q0 165 46.5 298t137 226.5t223 144t304.5 50.5t304.5 -51t223 -145t137.5 -226.5t47 -296.5q0 -165 -49 -300t-141 -231t-224.5 -148t-299.5 -52q-177 0 -309.5 54.5t-221.5 152t-133.5 231.5t-44.5 293zM381 711q0 -110 26.5 -201.5t78.5 -157.5t129 -103 t178 -37q108 0 186 37.5t128.5 104t74.5 158t24 199.5q0 111 -26.5 200.5t-78.5 153.5t-128.5 98.5t-177.5 34.5q-103 0 -180.5 -34.5t-129.5 -98.5t-78 -153.5t-26 -200.5zM397 1530q3 45 11 96t31.5 95t66.5 73t116 29q45 0 90 -19t87 -42.5t78.5 -42.5t65.5 -19 q25 0 41.5 8.5t28 24.5t18 39t11.5 51h135q-2 -45 -10 -96t-31 -95t-66 -73t-116 -29q-44 0 -88.5 19t-86.5 42.5t-79.5 42.5t-67.5 19q-26 0 -43 -8.5t-27.5 -24.5t-16.5 -38.5t-11 -51.5h-137z" />
<glyph unicode="&#xd6;" horiz-adv-x="1593" d="M84 711q0 165 46.5 298t137 226.5t223 144t304.5 50.5t304.5 -51t223 -145t137.5 -226.5t47 -296.5q0 -165 -49 -300t-141 -231t-224.5 -148t-299.5 -52q-177 0 -309.5 54.5t-221.5 152t-133.5 231.5t-44.5 293zM381 711q0 -110 26.5 -201.5t78.5 -157.5t129 -103 t178 -37q108 0 186 37.5t128.5 104t74.5 158t24 199.5q0 111 -26.5 200.5t-78.5 153.5t-128.5 98.5t-177.5 34.5q-103 0 -180.5 -34.5t-129.5 -98.5t-78 -153.5t-26 -200.5zM469 1530v219h194v-219h-194zM923 1530v219h197v-219h-197z" />
<glyph unicode="&#xd7;" horiz-adv-x="1196" d="M86 326l356 358l-352 352l158 156l352 -350l352 352l158 -158l-352 -354l352 -350l-158 -160l-352 354l-356 -358z" />
<glyph unicode="&#xd8;" horiz-adv-x="1593" d="M84 711q0 165 46.5 298t137 226.5t223 144t304.5 50.5q103 0 191.5 -19.5t162.5 -54.5l82 117h193l-142 -203q112 -94 169 -236.5t57 -322.5q0 -165 -49 -300t-141 -231t-225 -148t-300 -52q-212 0 -360 77l-91 -129l-195 -1l154 218q-109 99 -163 243.5t-54 322.5z M381 711q0 -99 20.5 -183t63.5 -149l539 768q-45 25 -96 38t-113 13q-103 0 -180.5 -34.5t-129.5 -98.5t-78 -153.5t-26 -200.5zM580 266q43 -26 96.5 -40.5t116.5 -14.5q108 0 186.5 37.5t129 104t74.5 158.5t24 200q0 100 -21.5 182.5t-64.5 144.5z" />
<glyph unicode="&#xd9;" horiz-adv-x="1479" d="M123 528v881h295v-858q0 -89 22 -153.5t63 -106t99 -61t129 -19.5q72 0 132.5 20.5t104 63.5t67.5 109t24 157v848h295v-866q0 -145 -47 -251t-131 -175.5t-199.5 -103t-253.5 -33.5q-132 0 -242 31.5t-189.5 98t-124 170.5t-44.5 248zM416 1772v43h258l251 -254v-31 h-169z" />
<glyph unicode="&#xda;" horiz-adv-x="1479" d="M123 528v881h295v-858q0 -89 22 -153.5t63 -106t99 -61t129 -19.5q72 0 132.5 20.5t104 63.5t67.5 109t24 157v848h295v-866q0 -145 -47 -251t-131 -175.5t-199.5 -103t-253.5 -33.5q-132 0 -242 31.5t-189.5 98t-124 170.5t-44.5 248zM592 1530v31l252 254h258v-43 l-340 -242h-170z" />
<glyph unicode="&#xdb;" horiz-adv-x="1479" d="M123 528v881h295v-858q0 -89 22 -153.5t63 -106t99 -61t129 -19.5q72 0 132.5 20.5t104 63.5t67.5 109t24 157v848h295v-866q0 -145 -47 -251t-131 -175.5t-199.5 -103t-253.5 -33.5q-132 0 -242 31.5t-189.5 98t-124 170.5t-44.5 248zM368 1530v29l258 276h229l250 -276 v-29h-159l-203 151h-4l-211 -151h-160z" />
<glyph unicode="&#xdc;" horiz-adv-x="1479" d="M123 528v881h295v-858q0 -89 22 -153.5t63 -106t99 -61t129 -19.5q72 0 132.5 20.5t104 63.5t67.5 109t24 157v848h295v-866q0 -145 -47 -251t-131 -175.5t-199.5 -103t-253.5 -33.5q-132 0 -242 31.5t-189.5 98t-124 170.5t-44.5 248zM413 1530v219h194v-219h-194z M867 1530v219h197v-219h-197z" />
<glyph unicode="&#xdd;" horiz-adv-x="1366" d="M35 1409h309l338 -596l342 596h309l-502 -831v-578h-294v578zM524 1530v31l252 254h258v-43l-340 -242h-170z" />
<glyph unicode="&#xde;" horiz-adv-x="1366" d="M137 0v1409h295v-233h338q135 0 234 -31.5t164 -89t96.5 -138.5t31.5 -180q0 -91 -30.5 -173.5t-93.5 -144.5t-160 -99t-230 -37h-350v-283h-295zM432 492h313q66 0 113.5 18t79 50.5t46.5 76.5t15 96q0 110 -65.5 172t-196.5 62h-305v-475z" />
<glyph unicode="&#xdf;" horiz-adv-x="1251" d="M143 0v1007q0 111 30 199.5t91.5 150t154.5 94.5t219 33q114 0 198 -27t138.5 -72.5t81 -106.5t26.5 -129q0 -54 -16.5 -96.5t-41.5 -76.5t-54.5 -61t-54.5 -49.5t-41.5 -43t-16.5 -40.5q0 -28 25 -52.5t62 -52t81 -60t81 -75t62 -99t25 -131.5q0 -73 -22 -134 t-69.5 -105t-120.5 -68.5t-175 -24.5q-71 0 -135.5 10t-126.5 33v206q24 -11 54 -21.5t61 -19t61.5 -13.5t55.5 -5q81 0 118 34.5t37 91.5q0 46 -25 80t-62.5 63.5t-81.5 58t-81.5 65t-62.5 84t-25 113.5q0 46 16.5 80.5t41.5 63.5t53.5 54t53.5 51.5t41.5 57.5t16.5 71 q0 65 -46.5 104t-134.5 39q-103 0 -157 -63.5t-54 -204.5v-1013h-281z" />
<glyph unicode="&#xe0;" d="M52 306q0 96 33.5 161.5t91.5 106t136 59t166 19.5l233 4v55q0 59 -10.5 98.5t-30.5 64.5t-49.5 35.5t-67.5 10.5q-35 0 -62.5 -7t-47.5 -24.5t-32.5 -47t-17.5 -74.5l-293 14q12 71 44 129.5t88.5 101.5t139 66.5t193.5 23.5q101 0 180 -25t134 -74.5t84 -121.5t29 -167 v-394q0 -38 3.5 -68t13 -50.5t27 -31t45.5 -10.5q32 0 62 6v-152q-25 -6 -45 -11t-40 -8t-42.5 -5t-52.5 -2q-106 0 -156.5 52t-60.5 153h-6q-56 -101 -143.5 -157t-212.5 -56q-78 0 -139.5 21.5t-104.5 63t-66 102.5t-23 139zM240 1459v43h258l251 -288v-31h-169zM345 328 q0 -77 35.5 -114.5t94.5 -37.5q54 0 98 23t74.5 60.5t47.5 86.5t17 100v55l-144 -2q-45 -2 -85.5 -7.5t-71 -23t-48.5 -50.5t-18 -90z" />
<glyph unicode="&#xe1;" d="M52 306q0 96 33.5 161.5t91.5 106t136 59t166 19.5l233 4v55q0 59 -10.5 98.5t-30.5 64.5t-49.5 35.5t-67.5 10.5q-35 0 -62.5 -7t-47.5 -24.5t-32.5 -47t-17.5 -74.5l-293 14q12 71 44 129.5t88.5 101.5t139 66.5t193.5 23.5q101 0 180 -25t134 -74.5t84 -121.5t29 -167 v-394q0 -38 3.5 -68t13 -50.5t27 -31t45.5 -10.5q32 0 62 6v-152q-25 -6 -45 -11t-40 -8t-42.5 -5t-52.5 -2q-106 0 -156.5 52t-60.5 153h-6q-56 -101 -143.5 -157t-212.5 -56q-78 0 -139.5 21.5t-104.5 63t-66 102.5t-23 139zM345 328q0 -77 35.5 -114.5t94.5 -37.5 q54 0 98 23t74.5 60.5t47.5 86.5t17 100v55l-144 -2q-45 -2 -85.5 -7.5t-71 -23t-48.5 -50.5t-18 -90zM375 1183v31l252 288h258v-43l-340 -276h-170z" />
<glyph unicode="&#xe2;" d="M52 306q0 96 33.5 161.5t91.5 106t136 59t166 19.5l233 4v55q0 59 -10.5 98.5t-30.5 64.5t-49.5 35.5t-67.5 10.5q-35 0 -62.5 -7t-47.5 -24.5t-32.5 -47t-17.5 -74.5l-293 14q12 71 44 129.5t88.5 101.5t139 66.5t193.5 23.5q101 0 180 -25t134 -74.5t84 -121.5t29 -167 v-394q0 -38 3.5 -68t13 -50.5t27 -31t45.5 -10.5q32 0 62 6v-152q-25 -6 -45 -11t-40 -8t-42.5 -5t-52.5 -2q-106 0 -156.5 52t-60.5 153h-6q-56 -101 -143.5 -157t-212.5 -56q-78 0 -139.5 21.5t-104.5 63t-66 102.5t-23 139zM199 1183v28l258 318h229l250 -318v-28h-159 l-203 192h-4l-211 -192h-160zM345 328q0 -77 35.5 -114.5t94.5 -37.5q54 0 98 23t74.5 60.5t47.5 86.5t17 100v55l-144 -2q-45 -2 -85.5 -7.5t-71 -23t-48.5 -50.5t-18 -90z" />
<glyph unicode="&#xe3;" d="M52 306q0 96 33.5 161.5t91.5 106t136 59t166 19.5l233 4v55q0 59 -10.5 98.5t-30.5 64.5t-49.5 35.5t-67.5 10.5q-35 0 -62.5 -7t-47.5 -24.5t-32.5 -47t-17.5 -74.5l-293 14q12 71 44 129.5t88.5 101.5t139 66.5t193.5 23.5q101 0 180 -25t134 -74.5t84 -121.5t29 -167 v-394q0 -38 3.5 -68t13 -50.5t27 -31t45.5 -10.5q32 0 62 6v-152q-25 -6 -45 -11t-40 -8t-42.5 -5t-52.5 -2q-106 0 -156.5 52t-60.5 153h-6q-56 -101 -143.5 -157t-212.5 -56q-78 0 -139.5 21.5t-104.5 63t-66 102.5t-23 139zM162 1183q3 45 11 96t31.5 95t66.5 73t116 29 q45 0 90 -19t87 -42.5t78.5 -42.5t65.5 -19q25 0 41.5 8.5t28 24.5t18 39t11.5 51h135q-2 -45 -10 -96t-31 -95t-66 -73t-116 -29q-44 0 -88.5 19t-86.5 42.5t-79.5 42.5t-67.5 19q-26 0 -43 -8.5t-27.5 -24.5t-16.5 -38.5t-11 -51.5h-137zM345 328q0 -77 35.5 -114.5 t94.5 -37.5q54 0 98 23t74.5 60.5t47.5 86.5t17 100v55l-144 -2q-45 -2 -85.5 -7.5t-71 -23t-48.5 -50.5t-18 -90z" />
<glyph unicode="&#xe4;" d="M52 306q0 96 33.5 161.5t91.5 106t136 59t166 19.5l233 4v55q0 59 -10.5 98.5t-30.5 64.5t-49.5 35.5t-67.5 10.5q-35 0 -62.5 -7t-47.5 -24.5t-32.5 -47t-17.5 -74.5l-293 14q12 71 44 129.5t88.5 101.5t139 66.5t193.5 23.5q101 0 180 -25t134 -74.5t84 -121.5t29 -167 v-394q0 -38 3.5 -68t13 -50.5t27 -31t45.5 -10.5q32 0 62 6v-152q-25 -6 -45 -11t-40 -8t-42.5 -5t-52.5 -2q-106 0 -156.5 52t-60.5 153h-6q-56 -101 -143.5 -157t-212.5 -56q-78 0 -139.5 21.5t-104.5 63t-66 102.5t-23 139zM231 1199v219h214v-219h-214zM345 328 q0 -77 35.5 -114.5t94.5 -37.5q54 0 98 23t74.5 60.5t47.5 86.5t17 100v55l-144 -2q-45 -2 -85.5 -7.5t-71 -23t-48.5 -50.5t-18 -90zM665 1199v219h217v-219h-217z" />
<glyph unicode="&#xe5;" d="M52 306q0 96 33.5 161.5t91.5 106t136 59t166 19.5l233 4v55q0 59 -10.5 98.5t-30.5 64.5t-49.5 35.5t-67.5 10.5q-35 0 -62.5 -7t-47.5 -24.5t-32.5 -47t-17.5 -74.5l-293 14q12 71 44 129.5t88.5 101.5t139 66.5t193.5 23.5q101 0 180 -25t134 -74.5t84 -121.5t29 -167 v-394q0 -38 3.5 -68t13 -50.5t27 -31t45.5 -10.5q32 0 62 6v-152q-25 -6 -45 -11t-40 -8t-42.5 -5t-52.5 -2q-106 0 -156.5 52t-60.5 153h-6q-56 -101 -143.5 -157t-212.5 -56q-78 0 -139.5 21.5t-104.5 63t-66 102.5t-23 139zM305 1431q0 52 20 98.5t54.5 81t81 54.5 t98.5 20t98.5 -20t81 -54.5t54.5 -81t20 -98.5q0 -53 -20 -99.5t-54.5 -81t-81 -54t-98.5 -19.5t-98.5 19.5t-81 54t-54.5 81t-20 99.5zM345 328q0 -77 35.5 -114.5t94.5 -37.5q54 0 98 23t74.5 60.5t47.5 86.5t17 100v55l-144 -2q-45 -2 -85.5 -7.5t-71 -23t-48.5 -50.5 t-18 -90zM434 1431q0 -27 9.5 -50.5t26.5 -40.5t40 -27t49 -10t49.5 10t40.5 27t27 40.5t10 50.5q0 26 -10 48.5t-27 39.5t-40.5 27t-49.5 10t-49 -10t-40 -27t-26.5 -39.5t-9.5 -48.5z" />
<glyph unicode="&#xe6;" horiz-adv-x="1821" d="M66 306q0 96 34.5 161t94.5 105.5t140 59t171 20.5l240 4v55q0 59 -11 98.5t-32.5 64.5t-53 35.5t-71.5 10.5q-37 0 -66.5 -7t-50.5 -24.5t-34.5 -47t-18.5 -74.5l-293 14q12 71 44.5 129.5t89.5 101.5t140 66.5t197 23.5q217 0 333 -107q69 57 155.5 82t182.5 25 q128 0 218.5 -44.5t148.5 -124.5t85 -191.5t27 -246.5v-19h-694q0 -65 13 -121.5t40.5 -98t70 -65t101.5 -23.5q74 0 121 31.5t67 97.5l265 -23q-18 -46 -50.5 -98t-86.5 -95.5t-134.5 -72t-195.5 -28.5q-151 0 -261 56.5t-173 172.5q-29 -50 -67.5 -92t-89 -72.5 t-114 -47.5t-142.5 -17t-142 21.5t-107 63t-67.5 102.5t-23.5 139zM359 328q0 -77 37.5 -114.5t99.5 -37.5q57 0 103 24.5t79 64t50.5 90t17.5 101.5v45l-152 -2q-48 -2 -90.5 -7.5t-74.5 -23t-51 -50.5t-19 -90zM1044 663h420q-8 131 -63 196.5t-148 65.5 q-43 0 -80.5 -14.5t-65 -46t-44.5 -81.5t-19 -120z" />
<glyph unicode="&#xe7;" d="M80 535q0 135 35 240.5t101 178t162.5 110.5t219.5 38q105 0 186.5 -28t140.5 -76.5t95.5 -114.5t50.5 -142l-283 -14q-12 83 -60 132.5t-136 49.5q-113 0 -165 -93t-52 -270q0 -374 221 -374q80 0 134 50.5t67 150.5l282 -13q-10 -75 -45.5 -143.5t-96 -121t-146.5 -84 t-197 -31.5q-129 0 -225.5 40t-160.5 113t-96 175.5t-32 226.5zM387 -301q25 -5 46 -6t38 -1q75 0 106 18.5t31 50.5q0 35 -28 52t-94 17h-25.5t-26.5 -2l62 172h143l-33 -82q94 -5 139.5 -46t45.5 -107q0 -39 -15.5 -74t-51 -60.5t-93.5 -40.5t-143 -15q-45 0 -101 6v118z " />
<glyph unicode="&#xe8;" d="M80 546q0 155 41.5 261t112 171.5t162.5 94.5t194 29q128 0 218.5 -44.5t148.5 -124.5t85 -191.5t27 -246.5v-8h-694q0 -68 12 -126.5t39 -101t70 -67t104 -24.5q74 0 121 31.5t67 97.5l265 -23q-18 -46 -50.5 -98t-86.5 -95.5t-134.5 -72t-195.5 -28.5 q-117 0 -210.5 34.5t-159.5 105t-101 177t-35 249.5zM287 1459v43h258l251 -288v-31h-169zM377 663h420q-8 131 -63 196.5t-148 65.5q-43 0 -80.5 -14.5t-65 -46t-44.5 -81.5t-19 -120z" />
<glyph unicode="&#xe9;" d="M80 546q0 155 41.5 261t112 171.5t162.5 94.5t194 29q128 0 218.5 -44.5t148.5 -124.5t85 -191.5t27 -246.5v-8h-694q0 -68 12 -126.5t39 -101t70 -67t104 -24.5q74 0 121 31.5t67 97.5l265 -23q-18 -46 -50.5 -98t-86.5 -95.5t-134.5 -72t-195.5 -28.5 q-117 0 -210.5 34.5t-159.5 105t-101 177t-35 249.5zM377 663h420q-8 131 -63 196.5t-148 65.5q-43 0 -80.5 -14.5t-65 -46t-44.5 -81.5t-19 -120zM418 1183v31l252 288h258v-43l-340 -276h-170z" />
<glyph unicode="&#xea;" d="M80 546q0 155 41.5 261t112 171.5t162.5 94.5t194 29q128 0 218.5 -44.5t148.5 -124.5t85 -191.5t27 -246.5v-8h-694q0 -68 12 -126.5t39 -101t70 -67t104 -24.5q74 0 121 31.5t67 97.5l265 -23q-18 -46 -50.5 -98t-86.5 -95.5t-134.5 -72t-195.5 -28.5 q-117 0 -210.5 34.5t-159.5 105t-101 177t-35 249.5zM223 1183v28l258 318h229l250 -318v-28h-159l-203 192h-4l-211 -192h-160zM377 663h420q-8 131 -63 196.5t-148 65.5q-43 0 -80.5 -14.5t-65 -46t-44.5 -81.5t-19 -120z" />
<glyph unicode="&#xeb;" d="M80 546q0 155 41.5 261t112 171.5t162.5 94.5t194 29q128 0 218.5 -44.5t148.5 -124.5t85 -191.5t27 -246.5v-8h-694q0 -68 12 -126.5t39 -101t70 -67t104 -24.5q74 0 121 31.5t67 97.5l265 -23q-18 -46 -50.5 -98t-86.5 -95.5t-134.5 -72t-195.5 -28.5 q-117 0 -210.5 34.5t-159.5 105t-101 177t-35 249.5zM260 1199v219h214v-219h-214zM377 663h420q-8 131 -63 196.5t-148 65.5q-43 0 -80.5 -14.5t-65 -46t-44.5 -81.5t-19 -120zM694 1199v219h217v-219h-217z" />
<glyph unicode="&#xec;" horiz-adv-x="569" d="M-64 1459v43h258l251 -288v-31h-169zM145 0v1082h281v-1082h-281z" />
<glyph unicode="&#xed;" horiz-adv-x="569" d="M114 1183v31l252 288h258v-43l-340 -276h-170zM145 0v1082h281v-1082h-281z" />
<glyph unicode="&#xee;" horiz-adv-x="569" d="M-83 1183v28l258 318h229l250 -318v-28h-159l-203 192h-4l-211 -192h-160zM145 0v1082h281v-1082h-281z" />
<glyph unicode="&#xef;" horiz-adv-x="569" d="M-40 1199v219h214v-219h-214zM145 0v1082h281v-1082h-281zM394 1199v219h217v-219h-217z" />
<glyph unicode="&#xf0;" horiz-adv-x="1251" d="M80 479q0 107 33.5 197.5t101.5 156.5t171 103t241 37q46 0 91 -8.5t72 -23.5q-34 72 -69 127t-81 108l-292 -122v184l166 70q-57 46 -123.5 90t-134.5 86h293q40 -20 80.5 -43t79.5 -51l268 113v-188l-121 -49q69 -70 127 -150.5t100 -171t65 -191.5t23 -212v-4 q0 -122 -34 -224t-102.5 -175.5t-171.5 -114.5t-240 -41q-132 0 -233 36.5t-170 102t-104.5 157t-35.5 201.5zM375 477q0 -80 17.5 -137.5t49.5 -95t77 -55t99 -17.5q125 0 192 72t67 233q0 160 -63 231.5t-183 71.5q-124 0 -190 -73t-66 -230z" />
<glyph unicode="&#xf1;" horiz-adv-x="1251" d="M135 1082h268q2 -12 4 -38.5t4 -58.5t3.5 -64t1.5 -54h4q57 124 143 180t205 56q98 0 165.5 -32t110 -88t61.5 -132t19 -164v-687h-280v607q0 63 -10 115.5t-33 90t-60 58.5t-90 21q-51 0 -92.5 -22.5t-71.5 -64t-46.5 -99t-16.5 -126.5v-580h-281v840q0 35 -0.5 72 t-2 70.5t-2.5 60t-3 39.5zM252 1183q3 45 11 96t31.5 95t66.5 73t116 29q45 0 90 -19t87 -42.5t78.5 -42.5t65.5 -19q25 0 41.5 8.5t28 24.5t18 39t11.5 51h135q-2 -45 -10 -96t-31 -95t-66 -73t-116 -29q-44 0 -88.5 19t-86.5 42.5t-79.5 42.5t-67.5 19q-26 0 -43 -8.5 t-27.5 -24.5t-16.5 -38.5t-11 -51.5h-137z" />
<glyph unicode="&#xf2;" horiz-adv-x="1251" d="M80 542q0 121 33.5 223.5t101.5 177.5t171 117t241 42q146 0 249 -42t168.5 -116.5t96 -177t30.5 -224.5q0 -124 -34.5 -227t-103.5 -177.5t-172 -116t-240 -41.5q-132 0 -233 41t-169.5 115t-103.5 177.5t-35 228.5zM328 1459v43h258l251 -288v-31h-169zM375 542 q0 -97 17.5 -167t49.5 -115t77 -66.5t99 -21.5q62 0 110.5 21.5t81.5 66.5t50 115t17 167q0 193 -63 280t-183 87q-124 0 -190 -88t-66 -279z" />
<glyph unicode="&#xf3;" horiz-adv-x="1251" d="M80 542q0 121 33.5 223.5t101.5 177.5t171 117t241 42q146 0 249 -42t168.5 -116.5t96 -177t30.5 -224.5q0 -124 -34.5 -227t-103.5 -177.5t-172 -116t-240 -41.5q-132 0 -233 41t-169.5 115t-103.5 177.5t-35 228.5zM375 542q0 -97 17.5 -167t49.5 -115t77 -66.5 t99 -21.5q62 0 110.5 21.5t81.5 66.5t50 115t17 167q0 193 -63 280t-183 87q-124 0 -190 -88t-66 -279zM465 1183v31l252 288h258v-43l-340 -276h-170z" />
<glyph unicode="&#xf4;" horiz-adv-x="1251" d="M80 542q0 121 33.5 223.5t101.5 177.5t171 117t241 42q146 0 249 -42t168.5 -116.5t96 -177t30.5 -224.5q0 -124 -34.5 -227t-103.5 -177.5t-172 -116t-240 -41.5q-132 0 -233 41t-169.5 115t-103.5 177.5t-35 228.5zM256 1183v28l258 318h229l250 -318v-28h-159 l-203 192h-4l-211 -192h-160zM375 542q0 -97 17.5 -167t49.5 -115t77 -66.5t99 -21.5q62 0 110.5 21.5t81.5 66.5t50 115t17 167q0 193 -63 280t-183 87q-124 0 -190 -88t-66 -279z" />
<glyph unicode="&#xf5;" horiz-adv-x="1251" d="M80 542q0 121 33.5 223.5t101.5 177.5t171 117t241 42q146 0 249 -42t168.5 -116.5t96 -177t30.5 -224.5q0 -124 -34.5 -227t-103.5 -177.5t-172 -116t-240 -41.5q-132 0 -233 41t-169.5 115t-103.5 177.5t-35 228.5zM234 1183q3 45 11 96t31.5 95t66.5 73t116 29 q45 0 90 -19t87 -42.5t78.5 -42.5t65.5 -19q25 0 41.5 8.5t28 24.5t18 39t11.5 51h135q-2 -45 -10 -96t-31 -95t-66 -73t-116 -29q-44 0 -88.5 19t-86.5 42.5t-79.5 42.5t-67.5 19q-26 0 -43 -8.5t-27.5 -24.5t-16.5 -38.5t-11 -51.5h-137zM375 542q0 -97 17.5 -167 t49.5 -115t77 -66.5t99 -21.5q62 0 110.5 21.5t81.5 66.5t50 115t17 167q0 193 -63 280t-183 87q-124 0 -190 -88t-66 -279z" />
<glyph unicode="&#xf6;" horiz-adv-x="1251" d="M80 542q0 121 33.5 223.5t101.5 177.5t171 117t241 42q146 0 249 -42t168.5 -116.5t96 -177t30.5 -224.5q0 -124 -34.5 -227t-103.5 -177.5t-172 -116t-240 -41.5q-132 0 -233 41t-169.5 115t-103.5 177.5t-35 228.5zM300 1199v219h214v-219h-214zM375 542 q0 -97 17.5 -167t49.5 -115t77 -66.5t99 -21.5q62 0 110.5 21.5t81.5 66.5t50 115t17 167q0 193 -63 280t-183 87q-124 0 -190 -88t-66 -279zM734 1199v219h217v-219h-217z" />
<glyph unicode="&#xf7;" horiz-adv-x="1124" d="M49 569v224h1027v-224h-1027zM442 170v233h238v-233h-238zM442 961v233h238v-233h-238z" />
<glyph unicode="&#xf8;" horiz-adv-x="1251" d="M1 -55l197 215q-59 73 -88.5 169.5t-29.5 212.5q0 121 33.5 223.5t101.5 177.5t171 117t241 42q104 0 185.5 -21.5t144.5 -61.5l101 114h184l-184 -206q59 -74 86 -172t27 -213q0 -124 -34.5 -227t-103.5 -177.5t-172 -116t-240 -41.5q-99 0 -179.5 23t-144.5 66 l-113 -124h-183zM375 542q0 -92 17 -163l407 461q-60 69 -168 69q-124 0 -190 -88t-66 -279zM454 244q32 -37 73 -54.5t91 -17.5q62 0 110.5 21.5t81.5 66.5t50 115t17 167q0 47 -4 87.5t-12 74.5z" />
<glyph unicode="&#xf9;" horiz-adv-x="1251" d="M127 395v687h281v-607q0 -63 10 -115.5t33 -90t59.5 -58.5t89.5 -21q51 0 92.5 22.5t71.5 64t46.5 99t16.5 126.5v580h281v-840q0 -34 0.5 -71.5t2 -71t3 -60t2.5 -39.5h-268q-1 12 -3.5 38.5t-4.5 58.5l-2 64q-2 32 -2 54h-5q-56 -123 -142.5 -179t-205.5 -56 q-97 0 -165 32t-110.5 87.5t-61.5 131.5t-19 164zM283 1459v43h258l251 -288v-31h-169z" />
<glyph unicode="&#xfa;" horiz-adv-x="1251" d="M127 395v687h281v-607q0 -63 10 -115.5t33 -90t59.5 -58.5t89.5 -21q51 0 92.5 22.5t71.5 64t46.5 99t16.5 126.5v580h281v-840q0 -34 0.5 -71.5t2 -71t3 -60t2.5 -39.5h-268q-1 12 -3.5 38.5t-4.5 58.5l-2 64q-2 32 -2 54h-5q-56 -123 -142.5 -179t-205.5 -56 q-97 0 -165 32t-110.5 87.5t-61.5 131.5t-19 164zM463 1183v31l252 288h258v-43l-340 -276h-170z" />
<glyph unicode="&#xfb;" horiz-adv-x="1251" d="M127 395v687h281v-607q0 -63 10 -115.5t33 -90t59.5 -58.5t89.5 -21q51 0 92.5 22.5t71.5 64t46.5 99t16.5 126.5v580h281v-840q0 -34 0.5 -71.5t2 -71t3 -60t2.5 -39.5h-268q-1 12 -3.5 38.5t-4.5 58.5l-2 64q-2 32 -2 54h-5q-56 -123 -142.5 -179t-205.5 -56 q-97 0 -165 32t-110.5 87.5t-61.5 131.5t-19 164zM252 1183v28l258 318h229l250 -318v-28h-159l-203 192h-4l-211 -192h-160z" />
<glyph unicode="&#xfc;" horiz-adv-x="1251" d="M127 395v687h281v-607q0 -63 10 -115.5t33 -90t59.5 -58.5t89.5 -21q51 0 92.5 22.5t71.5 64t46.5 99t16.5 126.5v580h281v-840q0 -34 0.5 -71.5t2 -71t3 -60t2.5 -39.5h-268q-1 12 -3.5 38.5t-4.5 58.5l-2 64q-2 32 -2 54h-5q-56 -123 -142.5 -179t-205.5 -56 q-97 0 -165 32t-110.5 87.5t-61.5 131.5t-19 164zM298 1199v219h214v-219h-214zM732 1199v219h217v-219h-217z" />
<glyph unicode="&#xfd;" d="M16 1082h297l170 -507q4 -11 12.5 -37t19 -59.5t21.5 -70.5t21 -70.5t17 -59.5t10 -37q3 11 9.5 36.5t15 58t18.5 68.5t19 69t16.5 59.5t11.5 38.5l160 511h294l-428 -1139q-39 -95 -79 -164t-88.5 -114.5t-109 -67.5t-140.5 -22q-44 0 -90 3t-87 10v200q20 -3 48.5 -5.5 t48.5 -2.5q41 0 73 9t58 30t48.5 56t43.5 88l18 48zM413 1183v31l252 288h258v-43l-340 -276h-170z" />
<glyph unicode="&#xfe;" horiz-adv-x="1251" d="M143 -425v1909h281v-462q0 -30 -0.5 -60t-1.5 -54q-1 -28 -2 -54h4q51 107 140 153t206 46q103 0 178 -40t123.5 -111t72 -168.5t23.5 -213.5q0 -117 -24.5 -216t-75.5 -171t-129.5 -112.5t-185.5 -40.5q-48 0 -95.5 10t-90.5 32.5t-79.5 59t-62.5 90.5h-6q1 -5 2 -25 t2 -46.5t1.5 -56t0.5 -54.5v-415h-281zM420 512q0 -99 20 -164.5t52.5 -104.5t73.5 -55t83 -16q108 0 166.5 82.5t58.5 265.5q0 172 -55.5 255t-167.5 83q-42 0 -83.5 -16t-74 -55.5t-53 -106.5t-20.5 -168z" />
<glyph unicode="&#xff;" d="M16 1082h297l170 -507q4 -11 12.5 -37t19 -59.5t21.5 -70.5t21 -70.5t17 -59.5t10 -37q3 11 9.5 36.5t15 58t18.5 68.5t19 69t16.5 59.5t11.5 38.5l160 511h294l-428 -1139q-39 -95 -79 -164t-88.5 -114.5t-109 -67.5t-140.5 -22q-44 0 -90 3t-87 10v200q20 -3 48.5 -5.5 t48.5 -2.5q41 0 73 9t58 30t48.5 56t43.5 88l18 48zM257 1199v219h214v-219h-214zM691 1199v219h217v-219h-217z" />
<glyph unicode="&#x100;" horiz-adv-x="1479" d="M51 0l514 1409h348l512 -1409h-292l-125 360h-537l-125 -360h-295zM432 1537v168h612v-168h-612zM537 582h405l-139 405q-12 35 -23.5 70.5t-20 65t-14 48.5t-6.5 21q-1 -3 -6 -22t-13.5 -48t-20 -64.5t-23.5 -70.5z" />
<glyph unicode="&#x101;" d="M60 306q0 96 33.5 161.5t91.5 106t136 59t166 19.5l233 4v55q0 59 -10.5 98.5t-30.5 64.5t-49.5 35.5t-67.5 10.5q-35 0 -62.5 -7t-47.5 -24.5t-32.5 -47t-17.5 -74.5l-293 14q12 71 44 129.5t88.5 101.5t139 66.5t193.5 23.5q101 0 180 -25t134 -74.5t84 -121.5t29 -167 v-394q0 -38 3.5 -68t13 -50.5t27 -31t45.5 -10.5q32 0 62 6v-152q-25 -6 -45 -11t-40 -8t-42.5 -5t-52.5 -2q-106 0 -156.5 52t-60.5 153h-6q-56 -101 -143.5 -157t-212.5 -56q-78 0 -139.5 21.5t-104.5 63t-66 102.5t-23 139zM279 1203v168h612v-168h-612zM353 328 q0 -77 35.5 -114.5t94.5 -37.5q54 0 98 23t74.5 60.5t47.5 86.5t17 100v55l-144 -2q-45 -2 -85.5 -7.5t-71 -23t-48.5 -50.5t-18 -90z" />
<glyph unicode="&#x102;" horiz-adv-x="1479" d="M51 0l514 1409h348l512 -1409h-292l-125 360h-537l-125 -360h-295zM385 1808h163q8 -32 26 -57t43 -42.5t56.5 -27t65.5 -9.5q36 0 67.5 9.5t56.5 27t42 42.5t24 57h164q-8 -57 -33.5 -109t-69 -91.5t-106.5 -63.5t-147 -24q-80 0 -143 24t-107.5 63.5t-70.5 91.5 t-31 109zM537 582h405l-139 405q-12 35 -23.5 70.5t-20 65t-14 48.5t-6.5 21q-1 -3 -6 -22t-13.5 -48t-20 -64.5t-23.5 -70.5z" />
<glyph unicode="&#x103;" d="M60 306q0 96 33.5 161.5t91.5 106t136 59t166 19.5l233 4v55q0 59 -10.5 98.5t-30.5 64.5t-49.5 35.5t-67.5 10.5q-35 0 -62.5 -7t-47.5 -24.5t-32.5 -47t-17.5 -74.5l-293 14q12 71 44 129.5t88.5 101.5t139 66.5t193.5 23.5q101 0 180 -25t134 -74.5t84 -121.5t29 -167 v-394q0 -38 3.5 -68t13 -50.5t27 -31t45.5 -10.5q32 0 62 6v-152q-25 -6 -45 -11t-40 -8t-42.5 -5t-52.5 -2q-106 0 -156.5 52t-60.5 153h-6q-56 -101 -143.5 -157t-212.5 -56q-78 0 -139.5 21.5t-104.5 63t-66 102.5t-23 139zM226 1506h163q8 -39 26 -70t43 -52t56.5 -32.5 t65.5 -11.5q36 0 67.5 11.5t56.5 32.5t42 52t24 70h164q-8 -66 -33.5 -124.5t-69 -103t-106.5 -70t-147 -25.5q-80 0 -143 25.5t-107.5 70t-70.5 103t-31 124.5zM353 328q0 -77 35.5 -114.5t94.5 -37.5q54 0 98 23t74.5 60.5t47.5 86.5t17 100v55l-144 -2q-45 -2 -85.5 -7.5 t-71 -23t-48.5 -50.5t-18 -90z" />
<glyph unicode="&#x104;" horiz-adv-x="1479" d="M51 0l514 1409h348l512 -1409h-292l-125 360h-537l-125 -360h-295zM537 582h405l-139 405q-12 35 -23.5 70.5t-20 65t-14 48.5t-6.5 21q-1 -3 -6 -22t-13.5 -48t-20 -64.5t-23.5 -70.5zM1025 -214q0 48 16 88.5t40 71.5t51.5 52.5t50.5 33.5h153q-63 -42 -96 -99.5 t-33 -110.5q0 -42 24.5 -67.5t69.5 -25.5q31 0 57.5 7t54.5 20v-137q-63 -33 -151 -33q-51 0 -94.5 12.5t-75 38t-49.5 62.5t-18 87z" />
<glyph unicode="&#x105;" d="M60 306q0 96 33.5 161.5t91.5 106t136 59t166 19.5l233 4v55q0 59 -10.5 98.5t-30.5 64.5t-49.5 35.5t-67.5 10.5q-35 0 -62.5 -7t-47.5 -24.5t-32.5 -47t-17.5 -74.5l-293 14q12 71 44 129.5t88.5 101.5t139 66.5t193.5 23.5q101 0 180 -25t134 -74.5t84 -121.5t29 -167 v-394q0 -38 3.5 -68t13 -50.5t27 -31t45.5 -10.5q32 0 62 6v-152q-25 -6 -45 -11t-40 -8t-42.5 -5t-52.5 -2q-106 0 -156.5 52t-60.5 153h-6q-56 -101 -143.5 -157t-212.5 -56q-78 0 -139.5 21.5t-104.5 63t-66 102.5t-23 139zM353 328q0 -77 35.5 -114.5t94.5 -37.5 q54 0 98 23t74.5 60.5t47.5 86.5t17 100v55l-144 -2q-45 -2 -85.5 -7.5t-71 -23t-48.5 -50.5t-18 -90zM685 -225q0 48 16 88.5t40 71.5t51.5 52.5t50.5 33.5h153q-63 -42 -96 -99.5t-33 -110.5q0 -42 24.5 -67.5t69.5 -25.5q31 0 57.5 7t54.5 20v-137q-63 -33 -151 -33 q-51 0 -94.5 12.5t-75 38t-49.5 62.5t-18 87z" />
<glyph unicode="&#x106;" horiz-adv-x="1479" d="M84 711q0 165 42.5 298t128.5 226.5t217.5 144t309.5 50.5q138 0 241.5 -29t179 -81.5t125 -124t77.5 -157.5l-260 -71q-14 45 -43 86.5t-73.5 73.5t-104.5 51.5t-136 19.5q-107 0 -184 -34.5t-126.5 -98.5t-73 -153.5t-23.5 -200.5q0 -110 23.5 -201.5t73.5 -157.5 t128.5 -103t188.5 -37q83 0 143.5 23.5t105 61.5t74 86t48.5 97l257 -97q-31 -76 -81 -149t-125 -129t-178.5 -90.5t-243.5 -34.5q-183 0 -317 54.5t-221.5 152t-130 231.5t-42.5 293zM652 1530v31l252 254h258v-43l-340 -242h-170z" />
<glyph unicode="&#x107;" d="M80 535q0 135 35 240.5t101 178t162.5 110.5t219.5 38q105 0 186.5 -28t140.5 -76.5t95.5 -114.5t50.5 -142l-283 -14q-12 83 -60 132.5t-136 49.5q-113 0 -165 -93t-52 -270q0 -374 221 -374q80 0 134 50.5t67 150.5l282 -13q-10 -75 -45.5 -143.5t-96 -121t-146.5 -84 t-197 -31.5q-129 0 -225.5 40t-160.5 113t-96 175.5t-32 226.5zM446 1183v31l252 288h258v-43l-340 -276h-170z" />
<glyph unicode="&#x108;" horiz-adv-x="1479" d="M84 711q0 165 42.5 298t128.5 226.5t217.5 144t309.5 50.5q138 0 241.5 -29t179 -81.5t125 -124t77.5 -157.5l-260 -71q-14 45 -43 86.5t-73.5 73.5t-104.5 51.5t-136 19.5q-107 0 -184 -34.5t-126.5 -98.5t-73 -153.5t-23.5 -200.5q0 -110 23.5 -201.5t73.5 -157.5 t128.5 -103t188.5 -37q83 0 143.5 23.5t105 61.5t74 86t48.5 97l257 -97q-31 -76 -81 -149t-125 -129t-178.5 -90.5t-243.5 -34.5q-183 0 -317 54.5t-221.5 152t-130 231.5t-42.5 293zM433 1530v29l258 276h229l250 -276v-29h-159l-203 151h-4l-211 -151h-160z" />
<glyph unicode="&#x109;" d="M80 535q0 135 35 240.5t101 178t162.5 110.5t219.5 38q105 0 186.5 -28t140.5 -76.5t95.5 -114.5t50.5 -142l-283 -14q-12 83 -60 132.5t-136 49.5q-113 0 -165 -93t-52 -270q0 -374 221 -374q80 0 134 50.5t67 150.5l282 -13q-10 -75 -45.5 -143.5t-96 -121t-146.5 -84 t-197 -31.5q-129 0 -225.5 40t-160.5 113t-96 175.5t-32 226.5zM230 1183v28l258 318h229l250 -318v-28h-159l-203 192h-4l-211 -192h-160z" />
<glyph unicode="&#x10a;" horiz-adv-x="1479" d="M84 711q0 165 42.5 298t128.5 226.5t217.5 144t309.5 50.5q138 0 241.5 -29t179 -81.5t125 -124t77.5 -157.5l-260 -71q-14 45 -43 86.5t-73.5 73.5t-104.5 51.5t-136 19.5q-107 0 -184 -34.5t-126.5 -98.5t-73 -153.5t-23.5 -200.5q0 -110 23.5 -201.5t73.5 -157.5 t128.5 -103t188.5 -37q83 0 143.5 23.5t105 61.5t74 86t48.5 97l257 -97q-31 -76 -81 -149t-125 -129t-178.5 -90.5t-243.5 -34.5q-183 0 -317 54.5t-221.5 152t-130 231.5t-42.5 293zM646 1547v207h281v-207h-281z" />
<glyph unicode="&#x10b;" d="M80 535q0 135 35 240.5t101 178t162.5 110.5t219.5 38q105 0 186.5 -28t140.5 -76.5t95.5 -114.5t50.5 -142l-283 -14q-12 83 -60 132.5t-136 49.5q-113 0 -165 -93t-52 -270q0 -374 221 -374q80 0 134 50.5t67 150.5l282 -13q-10 -75 -45.5 -143.5t-96 -121t-146.5 -84 t-197 -31.5q-129 0 -225.5 40t-160.5 113t-96 175.5t-32 226.5zM460 1277v207h281v-207h-281z" />
<glyph unicode="&#x10c;" horiz-adv-x="1479" d="M84 711q0 165 42.5 298t128.5 226.5t217.5 144t309.5 50.5q138 0 241.5 -29t179 -81.5t125 -124t77.5 -157.5l-260 -71q-14 45 -43 86.5t-73.5 73.5t-104.5 51.5t-136 19.5q-107 0 -184 -34.5t-126.5 -98.5t-73 -153.5t-23.5 -200.5q0 -110 23.5 -201.5t73.5 -157.5 t128.5 -103t188.5 -37q83 0 143.5 23.5t105 61.5t74 86t48.5 97l257 -97q-31 -76 -81 -149t-125 -129t-178.5 -90.5t-243.5 -34.5q-183 0 -317 54.5t-221.5 152t-130 231.5t-42.5 293zM413 1806v29h160l211 -152h4l203 152h159v-29l-250 -276h-229z" />
<glyph unicode="&#x10d;" d="M80 535q0 135 35 240.5t101 178t162.5 110.5t219.5 38q105 0 186.5 -28t140.5 -76.5t95.5 -114.5t50.5 -142l-283 -14q-12 83 -60 132.5t-136 49.5q-113 0 -165 -93t-52 -270q0 -374 221 -374q80 0 134 50.5t67 150.5l282 -13q-10 -75 -45.5 -143.5t-96 -121t-146.5 -84 t-197 -31.5q-129 0 -225.5 40t-160.5 113t-96 175.5t-32 226.5zM214 1500v29h160l211 -193h4l203 193h159v-29l-250 -317h-229z" />
<glyph unicode="&#x10e;" horiz-adv-x="1479" d="M137 0v1409h510q164 0 301 -41t236 -126t154 -216t55 -311q0 -176 -53 -309.5t-145 -223.5t-217.5 -136t-270.5 -46h-570zM331 1806v29h160l211 -152h4l203 152h159v-29l-250 -276h-229zM432 228h250q89 0 164.5 31t131 92.5t87 152.5t31.5 211q0 123 -33.5 211 t-93.5 144.5t-143.5 83.5t-184.5 27h-209v-953z" />
<glyph unicode="&#x10f;" horiz-adv-x="1472" d="M84 540q0 123 24.5 226t75.5 177.5t129.5 116.5t186.5 42q53 0 102 -11t91 -34t76 -59t58 -87h2q0 10 -0.5 29.5t-0.5 44.5t-0.5 52t-0.5 52v395h281v-1248q0 -79 3 -140.5t5 -95.5h-272q-2 8 -4.5 28.5t-5 46.5t-4 53t-1.5 48h-4q-49 -105 -136.5 -150.5t-209.5 -45.5 q-102 0 -176.5 42t-123 117t-72 177.5t-23.5 223.5zM377 540q0 -368 221 -368q42 0 84 18t75 61t53.5 115.5t20.5 180.5q0 107 -20 177.5t-52.5 112t-74 58t-84.5 16.5q-54 0 -95.5 -21t-70 -66t-43 -115t-14.5 -169zM1228 1277v207h245v-146q0 -43 -7 -79t-20 -66.5 t-30 -56t-37 -49.5h-137q45 48 69.5 96t24.5 94h-108z" />
<glyph unicode="&#x110;" horiz-adv-x="1479" d="M8 594v219h129v596h510q164 0 301 -41t236 -126t154 -216t55 -311q0 -176 -53 -309.5t-145 -223.5t-217.5 -136t-270.5 -46h-570v594h-129zM432 231h250q89 0 164.5 30.5t131 91.5t87 151.5t31.5 210.5q0 123 -33.5 210.5t-93.5 143.5t-143.5 82.5t-184.5 26.5h-209v-365 h356v-219h-356v-363z" />
<glyph unicode="&#x111;" horiz-adv-x="1251" d="M84 521q0 119 24.5 218.5t75.5 171t129.5 111.5t186.5 40q53 0 102 -11t91 -34t76 -59t58 -87h2q0 10 -0.5 29.5t-0.5 44.5t-0.5 52t-0.5 52v126h-286v170h286v139h282v-139h132v-170h-132v-939q0 -79 3 -140.5t5 -95.5h-272q-2 8 -4.5 28.5t-5 46.5t-4 53t-1.5 48h-4 q-49 -105 -137 -150.5t-210 -45.5q-102 0 -176.5 40.5t-123 112.5t-72 171t-23.5 217zM377 522q0 -350 221 -350q42 0 84 16.5t75 57.5t53.5 109.5t20.5 173.5q0 104 -20 170.5t-52.5 105.5t-74 54t-84.5 15q-54 0 -95.5 -19.5t-70 -61.5t-43 -109t-14.5 -162z" />
<glyph unicode="&#x112;" horiz-adv-x="1366" d="M137 0v1409h1108v-228h-813v-354h752v-228h-752v-371h854v-228h-1149zM386 1537v168h612v-168h-612z" />
<glyph unicode="&#x113;" d="M80 546q0 155 41.5 261t112 171.5t162.5 94.5t194 29q128 0 218.5 -44.5t148.5 -124.5t85 -191.5t27 -246.5v-8h-694q0 -68 12 -126.5t39 -101t70 -67t104 -24.5q74 0 121 31.5t67 97.5l265 -23q-18 -46 -50.5 -98t-86.5 -95.5t-134.5 -72t-195.5 -28.5 q-117 0 -210.5 34.5t-159.5 105t-101 177t-35 249.5zM281 1203v168h612v-168h-612zM377 663h420q-8 131 -63 196.5t-148 65.5q-43 0 -80.5 -14.5t-65 -46t-44.5 -81.5t-19 -120z" />
<glyph unicode="&#x114;" horiz-adv-x="1366" d="M137 0v1409h1108v-228h-813v-354h752v-228h-752v-371h854v-228h-1149zM348 1808h163q8 -32 26 -57t43 -42.5t56.5 -27t65.5 -9.5q36 0 67.5 9.5t56.5 27t42 42.5t24 57h164q-8 -57 -33.5 -109t-69 -91.5t-106.5 -63.5t-147 -24q-80 0 -143 24t-107.5 63.5t-70.5 91.5 t-31 109z" />
<glyph unicode="&#x115;" d="M80 546q0 155 41.5 261t112 171.5t162.5 94.5t194 29q128 0 218.5 -44.5t148.5 -124.5t85 -191.5t27 -246.5v-8h-694q0 -68 12 -126.5t39 -101t70 -67t104 -24.5q74 0 121 31.5t67 97.5l265 -23q-18 -46 -50.5 -98t-86.5 -95.5t-134.5 -72t-195.5 -28.5 q-117 0 -210.5 34.5t-159.5 105t-101 177t-35 249.5zM215 1506h163q8 -39 26 -70t43 -52t56.5 -32.5t65.5 -11.5q36 0 67.5 11.5t56.5 32.5t42 52t24 70h164q-8 -66 -33.5 -124.5t-69 -103t-106.5 -70t-147 -25.5q-80 0 -143 25.5t-107.5 70t-70.5 103t-31 124.5zM377 663 h420q-8 131 -63 196.5t-148 65.5q-43 0 -80.5 -14.5t-65 -46t-44.5 -81.5t-19 -120z" />
<glyph unicode="&#x116;" horiz-adv-x="1366" d="M137 0v1409h1108v-228h-813v-354h752v-228h-752v-371h854v-228h-1149zM565 1547v207h281v-207h-281z" />
<glyph unicode="&#x117;" d="M80 546q0 155 41.5 261t112 171.5t162.5 94.5t194 29q128 0 218.5 -44.5t148.5 -124.5t85 -191.5t27 -246.5v-8h-694q0 -68 12 -126.5t39 -101t70 -67t104 -24.5q74 0 121 31.5t67 97.5l265 -23q-18 -46 -50.5 -98t-86.5 -95.5t-134.5 -72t-195.5 -28.5 q-117 0 -210.5 34.5t-159.5 105t-101 177t-35 249.5zM377 663h420q-8 131 -63 196.5t-148 65.5q-43 0 -80.5 -14.5t-65 -46t-44.5 -81.5t-19 -120zM441 1277v207h281v-207h-281z" />
<glyph unicode="&#x118;" horiz-adv-x="1366" d="M137 0v1409h1108v-228h-813v-354h752v-228h-752v-371h854v-228h-1149zM825 -225q0 48 16 88.5t40 71.5t51.5 52.5t50.5 33.5h153q-63 -42 -96 -99.5t-33 -110.5q0 -42 24.5 -67.5t69.5 -25.5q31 0 57.5 7t54.5 20v-137q-63 -33 -151 -33q-51 0 -94.5 12.5t-75 38 t-49.5 62.5t-18 87z" />
<glyph unicode="&#x119;" d="M80 546q0 155 41.5 261t112 171.5t162.5 94.5t194 29q128 0 218.5 -44.5t148.5 -124.5t85 -191.5t27 -246.5v-8h-694q0 -68 12 -126.5t39 -101t70 -67t104 -24.5q74 0 121 31.5t67 97.5l265 -23q-18 -46 -50.5 -98t-86.5 -95.5t-134.5 -72t-195.5 -28.5 q-117 0 -210.5 34.5t-159.5 105t-101 177t-35 249.5zM377 663h420q-8 131 -63 196.5t-148 65.5q-43 0 -80.5 -14.5t-65 -46t-44.5 -81.5t-19 -120zM539 -208q0 48 16 88.5t40 71.5t51.5 52.5t50.5 33.5h153q-63 -42 -96 -99.5t-33 -110.5q0 -42 24.5 -67.5t69.5 -25.5 q31 0 57.5 7t54.5 20v-137q-63 -33 -151 -33q-51 0 -94.5 12.5t-75 38t-49.5 62.5t-18 87z" />
<glyph unicode="&#x11a;" horiz-adv-x="1366" d="M137 0v1409h1108v-228h-813v-354h752v-228h-752v-371h854v-228h-1149zM340 1806v29h160l211 -152h4l203 152h159v-29l-250 -276h-229z" />
<glyph unicode="&#x11b;" d="M80 546q0 155 41.5 261t112 171.5t162.5 94.5t194 29q128 0 218.5 -44.5t148.5 -124.5t85 -191.5t27 -246.5v-8h-694q0 -68 12 -126.5t39 -101t70 -67t104 -24.5q74 0 121 31.5t67 97.5l265 -23q-18 -46 -50.5 -98t-86.5 -95.5t-134.5 -72t-195.5 -28.5 q-117 0 -210.5 34.5t-159.5 105t-101 177t-35 249.5zM216 1500v29h160l211 -193h4l203 193h159v-29l-250 -317h-229zM377 663h420q-8 131 -63 196.5t-148 65.5q-43 0 -80.5 -14.5t-65 -46t-44.5 -81.5t-19 -120z" />
<glyph unicode="&#x11c;" horiz-adv-x="1593" d="M84 711q0 165 44 298t133.5 226.5t225 144t318.5 50.5q133 0 236.5 -26t181 -74t130 -115.5t83.5 -151.5l-272 -82q-18 44 -48 83.5t-74.5 69t-103 47t-133.5 17.5q-110 0 -190 -34.5t-132 -98.5t-77 -153.5t-25 -200.5q0 -110 25.5 -202t78 -158t132.5 -103t189 -37 q64 0 123 10t109.5 26.5t91 38t66.5 44.5v195h-344v218h614v-518q-48 -49 -116 -93.5t-153 -78t-185.5 -53.5t-213.5 -20q-187 0 -322 54.5t-222 152t-128.5 231.5t-41.5 293zM428 1530v29l258 276h229l250 -276v-29h-159l-203 151h-4l-211 -151h-160z" />
<glyph unicode="&#x11d;" horiz-adv-x="1251" d="M84 550q0 125 25 226.5t76.5 174.5t130 112.5t186.5 39.5t193.5 -46t133.5 -149h5q0 21 1.5 48.5t3.5 53t4.5 45.5t4.5 27h266q-2 -36 -4 -101t-2 -149v-799q0 -118 -34 -205.5t-99.5 -145.5t-161 -87t-217.5 -29q-107 0 -188.5 21.5t-139 60t-92 92t-47.5 117.5l281 33 q15 -65 64.5 -102t129.5 -37q50 0 91.5 14t71 47.5t46 88.5t16.5 136v57t1 53q1 28 1 54h-2q-49 -105 -137.5 -152t-210.5 -47q-103 0 -177.5 40.5t-123.5 113t-72.5 173t-23.5 221.5zM233 1183v28l258 318h229l250 -318v-28h-159l-203 192h-4l-211 -192h-160zM377 550 q0 -175 56 -264t167 -89q42 0 83.5 16.5t74.5 58t53 110.5t20 174q0 102 -20 170t-52 109t-73.5 58t-83.5 17q-54 0 -95.5 -21t-70.5 -65t-44 -112t-15 -162z" />
<glyph unicode="&#x11e;" horiz-adv-x="1593" d="M84 711q0 165 44 298t133.5 226.5t225 144t318.5 50.5q133 0 236.5 -26t181 -74t130 -115.5t83.5 -151.5l-272 -82q-18 44 -48 83.5t-74.5 69t-103 47t-133.5 17.5q-110 0 -190 -34.5t-132 -98.5t-77 -153.5t-25 -200.5q0 -110 25.5 -202t78 -158t132.5 -103t189 -37 q64 0 123 10t109.5 26.5t91 38t66.5 44.5v195h-344v218h614v-518q-48 -49 -116 -93.5t-153 -78t-185.5 -53.5t-213.5 -20q-187 0 -322 54.5t-222 152t-128.5 231.5t-41.5 293zM456 1808h163q8 -32 26 -57t43 -42.5t56.5 -27t65.5 -9.5q36 0 67.5 9.5t56.5 27t42 42.5t24 57 h164q-8 -57 -33.5 -109t-69 -91.5t-106.5 -63.5t-147 -24q-80 0 -143 24t-107.5 63.5t-70.5 91.5t-31 109z" />
<glyph unicode="&#x11f;" horiz-adv-x="1251" d="M84 550q0 125 25 226.5t76.5 174.5t130 112.5t186.5 39.5t193.5 -46t133.5 -149h5q0 21 1.5 48.5t3.5 53t4.5 45.5t4.5 27h266q-2 -36 -4 -101t-2 -149v-799q0 -118 -34 -205.5t-99.5 -145.5t-161 -87t-217.5 -29q-107 0 -188.5 21.5t-139 60t-92 92t-47.5 117.5l281 33 q15 -65 64.5 -102t129.5 -37q50 0 91.5 14t71 47.5t46 88.5t16.5 136v57t1 53q1 28 1 54h-2q-49 -105 -137.5 -152t-210.5 -47q-103 0 -177.5 40.5t-123.5 113t-72.5 173t-23.5 221.5zM253 1506h163q8 -39 26 -70t43 -52t56.5 -32.5t65.5 -11.5q36 0 67.5 11.5t56.5 32.5 t42 52t24 70h164q-8 -66 -33.5 -124.5t-69 -103t-106.5 -70t-147 -25.5q-80 0 -143 25.5t-107.5 70t-70.5 103t-31 124.5zM377 550q0 -175 56 -264t167 -89q42 0 83.5 16.5t74.5 58t53 110.5t20 174q0 102 -20 170t-52 109t-73.5 58t-83.5 17q-54 0 -95.5 -21t-70.5 -65 t-44 -112t-15 -162z" />
<glyph unicode="&#x120;" horiz-adv-x="1593" d="M84 711q0 165 44 298t133.5 226.5t225 144t318.5 50.5q133 0 236.5 -26t181 -74t130 -115.5t83.5 -151.5l-272 -82q-18 44 -48 83.5t-74.5 69t-103 47t-133.5 17.5q-110 0 -190 -34.5t-132 -98.5t-77 -153.5t-25 -200.5q0 -110 25.5 -202t78 -158t132.5 -103t189 -37 q64 0 123 10t109.5 26.5t91 38t66.5 44.5v195h-344v218h614v-518q-48 -49 -116 -93.5t-153 -78t-185.5 -53.5t-213.5 -20q-187 0 -322 54.5t-222 152t-128.5 231.5t-41.5 293zM667 1547v207h281v-207h-281z" />
<glyph unicode="&#x121;" horiz-adv-x="1251" d="M84 550q0 125 25 226.5t76.5 174.5t130 112.5t186.5 39.5t193.5 -46t133.5 -149h5q0 21 1.5 48.5t3.5 53t4.5 45.5t4.5 27h266q-2 -36 -4 -101t-2 -149v-799q0 -118 -34 -205.5t-99.5 -145.5t-161 -87t-217.5 -29q-107 0 -188.5 21.5t-139 60t-92 92t-47.5 117.5l281 33 q15 -65 64.5 -102t129.5 -37q50 0 91.5 14t71 47.5t46 88.5t16.5 136v57t1 53q1 28 1 54h-2q-49 -105 -137.5 -152t-210.5 -47q-103 0 -177.5 40.5t-123.5 113t-72.5 173t-23.5 221.5zM377 550q0 -175 56 -264t167 -89q42 0 83.5 16.5t74.5 58t53 110.5t20 174 q0 102 -20 170t-52 109t-73.5 58t-83.5 17q-54 0 -95.5 -21t-70.5 -65t-44 -112t-15 -162zM485 1277v207h281v-207h-281z" />
<glyph unicode="&#x122;" horiz-adv-x="1593" d="M84 711q0 165 44 298t133.5 226.5t225 144t318.5 50.5q133 0 236.5 -26t181 -74t130 -115.5t83.5 -151.5l-272 -82q-18 44 -48 83.5t-74.5 69t-103 47t-133.5 17.5q-110 0 -190 -34.5t-132 -98.5t-77 -153.5t-25 -200.5q0 -110 25.5 -202t78 -158t132.5 -103t189 -37 q64 0 123 10t109.5 26.5t91 38t66.5 44.5v195h-344v218h614v-518q-48 -49 -116 -93.5t-153 -78t-185.5 -53.5t-213.5 -20q-187 0 -322 54.5t-222 152t-128.5 231.5t-41.5 293zM693 -78h245v-126q0 -44 -7 -79.5t-20 -66t-30 -56t-37 -49.5h-137q45 48 69.5 90t24.5 80h-108 v207z" />
<glyph unicode="&#x123;" horiz-adv-x="1251" d="M84 550q0 125 25 226.5t76.5 174.5t130 112.5t186.5 39.5t193.5 -46t133.5 -149h5q0 21 1.5 48.5t3.5 53t4.5 45.5t4.5 27h266q-2 -36 -4 -101t-2 -149v-799q0 -118 -34 -205.5t-99.5 -145.5t-161 -87t-217.5 -29q-107 0 -188.5 21.5t-139 60t-92 92t-47.5 117.5l281 33 q15 -65 64.5 -102t129.5 -37q50 0 91.5 14t71 47.5t46 88.5t16.5 136v57t1 53q1 28 1 54h-2q-49 -105 -137.5 -152t-210.5 -47q-103 0 -177.5 40.5t-123.5 113t-72.5 173t-23.5 221.5zM377 550q0 -175 56 -264t167 -89q42 0 83.5 16.5t74.5 58t53 110.5t20 174 q0 102 -20 170t-52 109t-73.5 58t-83.5 17q-54 0 -95.5 -21t-70.5 -65t-44 -112t-15 -162zM496 1212v146q0 87 22 145.5t62 105.5h147q-45 -48 -69.5 -96t-24.5 -94h108v-207h-245z" />
<glyph unicode="&#x124;" horiz-adv-x="1479" d="M137 0v1409h295v-561h614v561h295v-1409h-295v604h-614v-604h-295zM376 1530v29l258 276h229l250 -276v-29h-159l-203 151h-4l-211 -151h-160z" />
<glyph unicode="&#x125;" horiz-adv-x="1251" d="M143 0v1484h281v-405q0 -32 -1 -64.5t-2.5 -61t-2.5 -51.5t-2 -36h4q57 124 143 180t205 56q98 0 165.5 -32t110 -88t61.5 -132t19 -164v-686h-280v606q0 63 -10 115.5t-33 90t-60 58.5t-90 21q-51 0 -92.5 -22.5t-71.5 -64t-46.5 -99t-16.5 -126.5v-579h-281zM275 1609 v29l258 276h229l250 -276v-29h-159l-203 151h-4l-211 -151h-160z" />
<glyph unicode="&#x126;" horiz-adv-x="1479" d="M14 1045v170h123v194h295v-194h625v194h284v-194h124v-170h-124v-1045h-284v604h-625v-604h-295v1045h-123zM432 848h625v197h-625v-197z" />
<glyph unicode="&#x127;" horiz-adv-x="1251" d="M10 1175v170h133v139h281v-139h306v-170h-306v-136q0 -32 -1 -64.5t-2.5 -61t-2.5 -51.5t-2 -36h4q57 124 143 180t205 56q98 0 165.5 -32t110 -88t61.5 -132t19 -164v-646h-280v566q0 63 -10 115.5t-33 90t-60 58.5t-90 21q-51 0 -92.5 -22.5t-71.5 -64t-46.5 -99 t-16.5 -126.5v-539h-281v1175h-133z" />
<glyph unicode="&#x128;" horiz-adv-x="569" d="M-103 1530q3 45 11 96t31.5 95t66.5 73t116 29q45 0 90 -19t87 -42.5t78.5 -42.5t65.5 -19q25 0 41.5 8.5t28 24.5t18 39t11.5 51h135q-2 -45 -10 -96t-31 -95t-66 -73t-116 -29q-44 0 -88.5 19t-86.5 42.5t-79.5 42.5t-67.5 19q-26 0 -43 -8.5t-27.5 -24.5t-16.5 -38.5 t-11 -51.5h-137zM137 0v1409h295v-1409h-295z" />
<glyph unicode="&#x129;" horiz-adv-x="569" d="M-103 1183q3 45 11 96t31.5 95t66.5 73t116 29q45 0 90 -19t87 -42.5t78.5 -42.5t65.5 -19q25 0 41.5 8.5t28 24.5t18 39t11.5 51h135q-2 -45 -10 -96t-31 -95t-66 -73t-116 -29q-44 0 -88.5 19t-86.5 42.5t-79.5 42.5t-67.5 19q-26 0 -43 -8.5t-27.5 -24.5t-16.5 -38.5 t-11 -51.5h-137zM145 0v1082h281v-1082h-281z" />
<glyph unicode="&#x12a;" horiz-adv-x="569" d="M-20 1537v168h612v-168h-612zM137 0v1409h295v-1409h-295z" />
<glyph unicode="&#x12b;" horiz-adv-x="569" d="M-20 1203v168h612v-168h-612zM145 0v1082h281v-1082h-281z" />
<glyph unicode="&#x12c;" horiz-adv-x="569" d="M-68 1808h163q8 -32 26 -57t43 -42.5t56.5 -27t65.5 -9.5q36 0 67.5 9.5t56.5 27t42 42.5t24 57h164q-8 -57 -33.5 -109t-69 -91.5t-106.5 -63.5t-147 -24q-80 0 -143 24t-107.5 63.5t-70.5 91.5t-31 109zM137 0v1409h295v-1409h-295z" />
<glyph unicode="&#x12d;" horiz-adv-x="569" d="M-67 1506h163q8 -39 26 -70t43 -52t56.5 -32.5t65.5 -11.5q36 0 67.5 11.5t56.5 32.5t42 52t24 70h164q-8 -66 -33.5 -124.5t-69 -103t-106.5 -70t-147 -25.5q-80 0 -143 25.5t-107.5 70t-70.5 103t-31 124.5zM145 0v1082h281v-1082h-281z" />
<glyph unicode="&#x12e;" horiz-adv-x="569" d="M88 -225q0 48 16 88.5t40 71.5t51.5 52.5t50.5 33.5h153q-63 -42 -96 -99.5t-33 -110.5q0 -42 24.5 -67.5t69.5 -25.5q31 0 57.5 7t54.5 20v-137q-63 -33 -151 -33q-51 0 -94.5 12.5t-75 38t-49.5 62.5t-18 87zM137 0v1409h295v-1409h-295z" />
<glyph unicode="&#x12f;" horiz-adv-x="569" d="M69 -225q0 48 16 88.5t40 71.5t51.5 52.5t50.5 33.5h153q-63 -42 -96 -99.5t-33 -110.5q0 -42 24.5 -67.5t69.5 -25.5q31 0 57.5 7t54.5 20v-137q-63 -33 -151 -33q-51 0 -94.5 12.5t-75 38t-49.5 62.5t-18 87zM143 0v1082h281v-1082h-281zM143 1277v207h281v-207h-281z " />
<glyph unicode="&#x130;" horiz-adv-x="569" d="M137 0v1409h295v-1409h-295zM146 1547v207h281v-207h-281z" />
<glyph unicode="&#x131;" horiz-adv-x="569" d="M145 0v1082h281v-1082h-281z" />
<glyph unicode="&#x132;" horiz-adv-x="1607" d="M137 0v1409h295v-1409h-295zM499 382l293 43q10 -59 28 -99.5t43.5 -66t58.5 -37t72 -11.5q88 0 133.5 59t45.5 169v739h-281v231h575v-963q0 -107 -31 -193.5t-91.5 -147t-149 -93t-203.5 -32.5q-106 0 -189 22t-144 70t-100.5 124.5t-59.5 185.5z" />
<glyph unicode="&#x133;" d="M143 0v1082h281v-1082h-281zM143 1277v207h281v-207h-281zM537 -218q13 -2 26 -3t25 -1q39 0 63 8t38 27t19 50t5 77v1142h281v-1210q0 -65 -16 -119t-50.5 -94t-89 -62t-131.5 -22q-56 0 -97.5 2.5t-72.5 6.5v198zM713 1277v207h281v-207h-281z" />
<glyph unicode="&#x134;" d="M31 382l293 43q10 -59 28 -99.5t43.5 -66t58.5 -37t72 -11.5q88 0 133.5 59t45.5 169v739h-281v231h575v-963q0 -107 -31 -193.5t-91.5 -147t-149 -93t-203.5 -32.5q-106 0 -189 22t-144 70t-100.5 124.5t-59.5 185.5zM321 1530v29l258 276h229l250 -276v-29h-159 l-203 151h-4l-211 -151h-160z" />
<glyph unicode="&#x135;" horiz-adv-x="569" d="M-90 1183v28l258 318h229l250 -318v-28h-159l-203 192h-4l-211 -192h-160zM-32 -218q13 -2 26 -3t25 -1q39 0 63 8t38 27t19 50t5 77v1142h281v-1210q0 -65 -16 -119t-50.5 -94t-89 -62t-131.5 -22q-56 0 -97.5 2.5t-72.5 6.5v198z" />
<glyph unicode="&#x136;" horiz-adv-x="1479" d="M137 0v1409h295v-639l635 639h344l-602 -596l651 -813h-348l-506 647l-174 -133v-514h-295zM630 -78h245v-126q0 -44 -7 -79.5t-20 -66t-30 -56t-37 -49.5h-137q45 48 69.5 90t24.5 80h-108v207z" />
<glyph unicode="&#x137;" d="M143 0v1484h281v-850l386 448h302l-380 -422l409 -660h-307l-289 490l-121 -84v-406h-281zM480 -78h245v-126q0 -44 -7 -79.5t-20 -66t-30 -56t-37 -49.5h-137q45 48 69.5 90t24.5 80h-108v207z" />
<glyph unicode="&#x138;" d="M143 0v1082h281v-448l386 448h302l-380 -422l409 -660h-307l-289 490l-121 -84v-406h-281z" />
<glyph unicode="&#x139;" horiz-adv-x="1251" d="M137 0v1409h295v-1181h756v-228h-1051zM260 1530v31l252 254h258v-43l-340 -242h-170z" />
<glyph unicode="&#x13a;" horiz-adv-x="569" d="M106 1609v31l252 254h258v-43l-340 -242h-170zM143 0v1484h281v-1484h-281z" />
<glyph unicode="&#x13b;" horiz-adv-x="1251" d="M137 0v1409h295v-1181h756v-228h-1051zM512 -78h245v-126q0 -44 -7 -79.5t-20 -66t-30 -56t-37 -49.5h-137q45 48 69.5 90t24.5 80h-108v207z" />
<glyph unicode="&#x13c;" horiz-adv-x="569" d="M143 0v1484h281v-1484h-281zM161 -78h245v-126q0 -44 -7 -79.5t-20 -66t-30 -56t-37 -49.5h-137q45 48 69.5 90t24.5 80h-108v207z" />
<glyph unicode="&#x13d;" horiz-adv-x="1251" d="M137 0v1409h295v-1181h756v-228h-1051zM739 1202v207h245v-146q0 -43 -7 -79t-20 -66.5t-30 -56t-37 -49.5h-137q45 48 69.5 96t24.5 94h-108z" />
<glyph unicode="&#x13e;" horiz-adv-x="789" d="M143 0v1484h281v-1484h-281zM545 1277v207h245v-146q0 -43 -7 -79t-20 -66.5t-30 -56t-37 -49.5h-137q45 48 69.5 96t24.5 94h-108z" />
<glyph unicode="&#x13f;" horiz-adv-x="1251" d="M137 0v1409h295v-1181h756v-228h-1051zM669 651v207h281v-207h-281z" />
<glyph unicode="&#x140;" horiz-adv-x="981" d="M143 0v1484h281v-1484h-281zM600 651v207h281v-207h-281z" />
<glyph unicode="&#x141;" horiz-adv-x="1251" d="M0 418v225l137 66v700h295v-559l307 147v-223l-307 -147v-396h756v-231h-1051v483z" />
<glyph unicode="&#x142;" horiz-adv-x="569" d="M18 492v215l125 69v708h281v-552l129 74v-213l-129 -76v-717h-281v561z" />
<glyph unicode="&#x143;" horiz-adv-x="1479" d="M137 0v1409h337l623 -1094q-5 42 -9 88q-4 39 -6.5 88t-2.5 99v819h262v-1409h-346l-614 1085q5 -44 9 -88q4 -38 6.5 -82t2.5 -84v-831h-262zM574 1530v31l252 254h258v-43l-340 -242h-170z" />
<glyph unicode="&#x144;" horiz-adv-x="1251" d="M135 1082h268q2 -12 4 -38.5t4 -58.5t3.5 -64t1.5 -54h4q57 124 143 180t205 56q98 0 165.5 -32t110 -88t61.5 -132t19 -164v-687h-280v607q0 63 -10 115.5t-33 90t-60 58.5t-90 21q-51 0 -92.5 -22.5t-71.5 -64t-46.5 -99t-16.5 -126.5v-580h-281v840q0 35 -0.5 72 t-2 70.5t-2.5 60t-3 39.5zM475 1183v31l252 288h258v-43l-340 -276h-170z" />
<glyph unicode="&#x145;" horiz-adv-x="1479" d="M137 0v1409h337l623 -1094q-5 42 -9 88q-4 39 -6.5 88t-2.5 99v819h262v-1409h-346l-614 1085q5 -44 9 -88q4 -38 6.5 -82t2.5 -84v-831h-262zM611 -78h245v-126q0 -44 -7 -79.5t-20 -66t-30 -56t-37 -49.5h-137q45 48 69.5 90t24.5 80h-108v207z" />
<glyph unicode="&#x146;" horiz-adv-x="1251" d="M135 1082h268q2 -12 4 -38.5t4 -58.5t3.5 -64t1.5 -54h4q57 124 143 180t205 56q98 0 165.5 -32t110 -88t61.5 -132t19 -164v-687h-280v607q0 63 -10 115.5t-33 90t-60 58.5t-90 21q-51 0 -92.5 -22.5t-71.5 -64t-46.5 -99t-16.5 -126.5v-580h-281v840q0 35 -0.5 72 t-2 70.5t-2.5 60t-3 39.5zM514 -78h245v-126q0 -44 -7 -79.5t-20 -66t-30 -56t-37 -49.5h-137q45 48 69.5 90t24.5 80h-108v207z" />
<glyph unicode="&#x147;" horiz-adv-x="1479" d="M137 0v1409h337l623 -1094q-5 42 -9 88q-4 39 -6.5 88t-2.5 99v819h262v-1409h-346l-614 1085q5 -44 9 -88q4 -38 6.5 -82t2.5 -84v-831h-262zM365 1806v29h160l211 -152h4l203 152h159v-29l-250 -276h-229z" />
<glyph unicode="&#x148;" horiz-adv-x="1251" d="M135 1082h268q2 -12 4 -38.5t4 -58.5t3.5 -64t1.5 -54h4q57 124 143 180t205 56q98 0 165.5 -32t110 -88t61.5 -132t19 -164v-687h-280v607q0 63 -10 115.5t-33 90t-60 58.5t-90 21q-51 0 -92.5 -22.5t-71.5 -64t-46.5 -99t-16.5 -126.5v-580h-281v840q0 35 -0.5 72 t-2 70.5t-2.5 60t-3 39.5zM242 1500v29h160l211 -193h4l203 193h159v-29l-250 -317h-229z" />
<glyph unicode="&#x149;" horiz-adv-x="1451" d="M-22 831q28 36 52 75t41.5 79.5t27.5 82t10 81.5h-127v260h287v-195q0 -67 -7 -121.5t-21 -101t-34.5 -85.5t-46.5 -75h-182zM335 1082h268q2 -12 4 -38.5t4 -58.5t3.5 -64t1.5 -54h4q57 124 143 180t205 56q98 0 165.5 -32t110 -88t61.5 -132t19 -164v-687h-280v607 q0 63 -10 115.5t-33 90t-60 58.5t-90 21q-51 0 -92.5 -22.5t-71.5 -64t-46.5 -99t-16.5 -126.5v-580h-281v840q0 35 -0.5 72t-2 70.5t-2.5 60t-3 39.5z" />
<glyph unicode="&#x14a;" horiz-adv-x="1481" d="M133 1409h288q2 -22 4 -53.5t3.5 -66t2.5 -69t1 -62.5h4q32 62 80.5 112t110 85t134 54.5t153.5 19.5q117 0 201 -32t137 -98.5t78 -168.5t25 -241v-347q0 -130 -21 -234t-72.5 -177t-138.5 -112t-219 -39q-74 0 -131.5 11.5t-103.5 34t-82 56t-68 76.5l202 171 q17 -22 35.5 -43t40.5 -37.5t48 -26.5t57 -10q54 0 87.5 22.5t51.5 65.5t24 107t6 146v295q0 94 -16 161t-49.5 109.5t-85 62t-122.5 19.5q-76 0 -143 -29.5t-116.5 -79t-78 -115t-28.5 -137.5v-839h-295v1092q0 37 -0.5 83t-1 91t-1 83t-1.5 60z" />
<glyph unicode="&#x14b;" horiz-adv-x="1251" d="M135 1082h268q2 -12 4 -38.5t4 -58.5t3.5 -64t1.5 -54h4q57 124 143 180t205 56q98 0 165.5 -32t110 -88t61.5 -132t19 -164v-815q0 -65 -16 -119t-50.5 -94t-89 -62t-131.5 -22q-56 0 -97.5 2.5t-72.5 6.5v198q13 -2 26 -3t25 -1q39 0 63.5 8t38.5 27t19 50t5 77v667 q0 63 -10 115.5t-33 90t-60 58.5t-90 21q-51 0 -92.5 -22.5t-71.5 -64t-46.5 -99t-16.5 -126.5v-580h-281v840q0 35 -0.5 72t-2 70.5t-2.5 60t-3 39.5z" />
<glyph unicode="&#x14c;" horiz-adv-x="1593" d="M84 711q0 165 46.5 298t137 226.5t223 144t304.5 50.5t304.5 -51t223 -145t137.5 -226.5t47 -296.5q0 -165 -49 -300t-141 -231t-224.5 -148t-299.5 -52q-177 0 -309.5 54.5t-221.5 152t-133.5 231.5t-44.5 293zM381 711q0 -110 26.5 -201.5t78.5 -157.5t129 -103 t178 -37q108 0 186 37.5t128.5 104t74.5 158t24 199.5q0 111 -26.5 200.5t-78.5 153.5t-128.5 98.5t-177.5 34.5q-103 0 -180.5 -34.5t-129.5 -98.5t-78 -153.5t-26 -200.5zM490 1537v168h612v-168h-612z" />
<glyph unicode="&#x14d;" horiz-adv-x="1251" d="M80 542q0 121 33.5 223.5t101.5 177.5t171 117t241 42q146 0 249 -42t168.5 -116.5t96 -177t30.5 -224.5q0 -124 -34.5 -227t-103.5 -177.5t-172 -116t-240 -41.5q-132 0 -233 41t-169.5 115t-103.5 177.5t-35 228.5zM324 1203v168h612v-168h-612zM375 542 q0 -97 17.5 -167t49.5 -115t77 -66.5t99 -21.5q62 0 110.5 21.5t81.5 66.5t50 115t17 167q0 193 -63 280t-183 87q-124 0 -190 -88t-66 -279z" />
<glyph unicode="&#x14e;" horiz-adv-x="1593" d="M84 711q0 165 46.5 298t137 226.5t223 144t304.5 50.5t304.5 -51t223 -145t137.5 -226.5t47 -296.5q0 -165 -49 -300t-141 -231t-224.5 -148t-299.5 -52q-177 0 -309.5 54.5t-221.5 152t-133.5 231.5t-44.5 293zM381 711q0 -110 26.5 -201.5t78.5 -157.5t129 -103 t178 -37q108 0 186 37.5t128.5 104t74.5 158t24 199.5q0 111 -26.5 200.5t-78.5 153.5t-128.5 98.5t-177.5 34.5q-103 0 -180.5 -34.5t-129.5 -98.5t-78 -153.5t-26 -200.5zM432 1808h163q8 -32 26 -57t43 -42.5t56.5 -27t65.5 -9.5q36 0 67.5 9.5t56.5 27t42 42.5t24 57 h164q-8 -57 -33.5 -109t-69 -91.5t-106.5 -63.5t-147 -24q-80 0 -143 24t-107.5 63.5t-70.5 91.5t-31 109z" />
<glyph unicode="&#x14f;" horiz-adv-x="1251" d="M80 542q0 121 33.5 223.5t101.5 177.5t171 117t241 42q146 0 249 -42t168.5 -116.5t96 -177t30.5 -224.5q0 -124 -34.5 -227t-103.5 -177.5t-172 -116t-240 -41.5q-132 0 -233 41t-169.5 115t-103.5 177.5t-35 228.5zM279 1506h163q8 -39 26 -70t43 -52t56.5 -32.5 t65.5 -11.5q36 0 67.5 11.5t56.5 32.5t42 52t24 70h164q-8 -66 -33.5 -124.5t-69 -103t-106.5 -70t-147 -25.5q-80 0 -143 25.5t-107.5 70t-70.5 103t-31 124.5zM375 542q0 -97 17.5 -167t49.5 -115t77 -66.5t99 -21.5q62 0 110.5 21.5t81.5 66.5t50 115t17 167 q0 193 -63 280t-183 87q-124 0 -190 -88t-66 -279z" />
<glyph unicode="&#x150;" horiz-adv-x="1593" d="M84 711q0 165 46.5 298t137 226.5t223 144t304.5 50.5t304.5 -51t223 -145t137.5 -226.5t47 -296.5q0 -165 -49 -300t-141 -231t-224.5 -148t-299.5 -52q-177 0 -309.5 54.5t-221.5 152t-133.5 231.5t-44.5 293zM381 711q0 -110 26.5 -201.5t78.5 -157.5t129 -103 t178 -37q108 0 186 37.5t128.5 104t74.5 158t24 199.5q0 111 -26.5 200.5t-78.5 153.5t-128.5 98.5t-177.5 34.5q-103 0 -180.5 -34.5t-129.5 -98.5t-78 -153.5t-26 -200.5zM479 1530v34l215 252h235v-43l-318 -243h-132zM885 1530v34l215 252h235v-43l-318 -243h-132z" />
<glyph unicode="&#x151;" horiz-adv-x="1251" d="M80 542q0 121 33.5 223.5t101.5 177.5t171 117t241 42q146 0 249 -42t168.5 -116.5t96 -177t30.5 -224.5q0 -124 -34.5 -227t-103.5 -177.5t-172 -116t-240 -41.5q-132 0 -233 41t-169.5 115t-103.5 177.5t-35 228.5zM293 1184v34l225 266h235v-43l-318 -257h-142z M375 542q0 -97 17.5 -167t49.5 -115t77 -66.5t99 -21.5q62 0 110.5 21.5t81.5 66.5t50 115t17 167q0 193 -63 280t-183 87q-124 0 -190 -88t-66 -279zM699 1184v34l225 266h235v-43l-318 -257h-142z" />
<glyph unicode="&#x152;" horiz-adv-x="2048" d="M84 711q0 165 46.5 296.5t137 223t223 140.5t304.5 49q56 0 105.5 -3.5t97.5 -7.5h929v-227h-667v-355h606v-221h-606v-379h708v-227h-976q-38 -2 -91.5 -6t-107.5 -4q-177 0 -309.5 53t-221.5 148.5t-133.5 228t-44.5 291.5zM381 711q0 -110 26.5 -200t79 -154.5 t129.5 -99.5t177 -35q46 0 89 3t81 17v927q-30 8 -77 13.5t-91 5.5q-103 0 -180.5 -33t-129.5 -95t-78 -150t-26 -199z" />
<glyph unicode="&#x153;" horiz-adv-x="1933" d="M80 542q0 121 33.5 223.5t101.5 177.5t171 117t241 42q134 0 231 -40t163 -113q71 81 166 117t201 36q128 0 218.5 -44.5t148.5 -124.5t85 -191.5t27 -246.5v-19h-694q0 -65 13 -121.5t40.5 -98t70 -65t101.5 -23.5q74 0 121 31.5t67 97.5l265 -23q-18 -46 -50.5 -98 t-86.5 -95.5t-134.5 -72t-195.5 -28.5q-118 0 -210.5 39.5t-158.5 119.5q-69 -76 -167 -117.5t-227 -41.5q-132 0 -233 41t-169.5 115t-103.5 177.5t-35 228.5zM375 542q0 -97 17.5 -167t49.5 -115t77 -66.5t99 -21.5q62 0 110.5 21.5t81.5 66.5t50 115t17 167 q0 193 -63 280t-183 87q-124 0 -190 -88t-66 -279zM1175 663h420q-8 131 -63 196.5t-148 65.5q-43 0 -80.5 -14.5t-65 -46t-44.5 -81.5t-19 -120z" />
<glyph unicode="&#x154;" horiz-adv-x="1479" d="M137 0v1409h704q132 0 230.5 -29.5t164.5 -84t98.5 -132t32.5 -174.5q0 -79 -23.5 -144.5t-65 -116.5t-98.5 -85.5t-124 -50.5l381 -592h-332l-327 535h-346v-535h-295zM432 764h386q66 0 113.5 15.5t78 44t45.5 67.5t15 86q0 103 -67.5 153t-192.5 50h-378v-416z M548 1530v31l252 254h258v-43l-340 -242h-170z" />
<glyph unicode="&#x155;" horiz-adv-x="797" d="M135 1082h268q2 -12 4 -41.5t4 -64.5t3.5 -69.5t1.5 -55.5h4q21 59 42 105.5t49.5 79t68.5 50t99 17.5q25 0 49.5 -4.5t37.5 -10.5v-235q-27 6 -54.5 10.5t-65.5 4.5q-105 0 -163.5 -85t-58.5 -252v-531h-281v828q0 35 -0.5 74t-2 74.5t-2.5 64t-3 41.5zM269 1183v31 l252 288h258v-43l-340 -276h-170z" />
<glyph unicode="&#x156;" horiz-adv-x="1479" d="M137 0v1409h704q132 0 230.5 -29.5t164.5 -84t98.5 -132t32.5 -174.5q0 -79 -23.5 -144.5t-65 -116.5t-98.5 -85.5t-124 -50.5l381 -592h-332l-327 535h-346v-535h-295zM432 764h386q66 0 113.5 15.5t78 44t45.5 67.5t15 86q0 103 -67.5 153t-192.5 50h-378v-416z M620 -78h245v-126q0 -44 -7 -79.5t-20 -66t-30 -56t-37 -49.5h-137q45 48 69.5 90t24.5 80h-108v207z" />
<glyph unicode="&#x157;" horiz-adv-x="797" d="M135 1082h268q2 -12 4 -41.5t4 -64.5t3.5 -69.5t1.5 -55.5h4q21 59 42 105.5t49.5 79t68.5 50t99 17.5q25 0 49.5 -4.5t37.5 -10.5v-235q-27 6 -54.5 10.5t-65.5 4.5q-105 0 -163.5 -85t-58.5 -252v-531h-281v828q0 35 -0.5 74t-2 74.5t-2.5 64t-3 41.5zM160 -78h245 v-126q0 -44 -7 -79.5t-20 -66t-30 -56t-37 -49.5h-137q45 48 69.5 90t24.5 80h-108v207z" />
<glyph unicode="&#x158;" horiz-adv-x="1479" d="M137 0v1409h704q132 0 230.5 -29.5t164.5 -84t98.5 -132t32.5 -174.5q0 -79 -23.5 -144.5t-65 -116.5t-98.5 -85.5t-124 -50.5l381 -592h-332l-327 535h-346v-535h-295zM331 1806v29h160l211 -152h4l203 152h159v-29l-250 -276h-229zM432 764h386q66 0 113.5 15.5t78 44 t45.5 67.5t15 86q0 103 -67.5 153t-192.5 50h-378v-416z" />
<glyph unicode="&#x159;" horiz-adv-x="797" d="M56 1500v29h160l211 -193h4l203 193h159v-29l-250 -317h-229zM135 1082h268q2 -12 4 -41.5t4 -64.5t3.5 -69.5t1.5 -55.5h4q21 59 42 105.5t49.5 79t68.5 50t99 17.5q25 0 49.5 -4.5t37.5 -10.5v-235q-27 6 -54.5 10.5t-65.5 4.5q-105 0 -163.5 -85t-58.5 -252v-531h-281 v828q0 35 -0.5 74t-2 74.5t-2.5 64t-3 41.5z" />
<glyph unicode="&#x15a;" horiz-adv-x="1366" d="M59 367l285 47q12 -47 35 -86t63.5 -67.5t101 -44t146.5 -15.5q150 0 229.5 45.5t79.5 142.5q0 58 -32 95t-85 61t-122 40t-144 31q-60 14 -120 29t-114.5 36t-101.5 50t-81.5 71.5t-54 99.5t-19.5 134q0 105 42 180t116.5 122.5t177.5 69.5t225 22q138 0 236.5 -21.5 t165 -65.5t105 -110.5t56.5 -155.5l-286 -39q-22 91 -89.5 137t-193.5 46q-78 0 -129.5 -13.5t-82 -36.5t-43.5 -53.5t-13 -64.5q0 -52 25 -85.5t70 -56t107.5 -38t137.5 -31.5q66 -14 131 -29.5t124 -36.5t110 -51t88.5 -73.5t59 -103.5t21.5 -142q0 -96 -35 -174.5 t-108.5 -134.5t-188 -86.5t-272.5 -30.5q-140 0 -247 25t-183.5 74t-124 121.5t-68.5 166.5zM555 1530v31l252 254h258v-43l-340 -242h-170z" />
<glyph unicode="&#x15b;" d="M72 270l247 37q12 -45 33 -73t52 -43t72.5 -20t94.5 -5q48 0 89.5 5.5t72 19t47.5 38t17 61.5q0 42 -24.5 66.5t-67 40t-100 27t-122.5 26.5q-68 15 -134 36t-118 57t-84 91.5t-32 140.5q0 77 30 137.5t88 103t143.5 65t196.5 22.5q88 0 164 -16.5t136 -52t100.5 -90.5 t56.5 -133l-249 -26q-7 39 -25 64.5t-44.5 40.5t-61.5 20.5t-77 5.5q-100 0 -150 -25.5t-50 -85.5q0 -37 20.5 -59t58 -36.5t89 -25t112.5 -25.5q75 -16 147.5 -37.5t129 -59t91 -96.5t34.5 -150q0 -78 -32.5 -140t-94.5 -105.5t-152 -67t-205 -23.5q-103 0 -186 15 t-145.5 49.5t-104.5 89.5t-63 136zM400 1183v31l252 288h258v-43l-340 -276h-170z" />
<glyph unicode="&#x15c;" horiz-adv-x="1366" d="M59 367l285 47q12 -47 35 -86t63.5 -67.5t101 -44t146.5 -15.5q150 0 229.5 45.5t79.5 142.5q0 58 -32 95t-85 61t-122 40t-144 31q-60 14 -120 29t-114.5 36t-101.5 50t-81.5 71.5t-54 99.5t-19.5 134q0 105 42 180t116.5 122.5t177.5 69.5t225 22q138 0 236.5 -21.5 t165 -65.5t105 -110.5t56.5 -155.5l-286 -39q-22 91 -89.5 137t-193.5 46q-78 0 -129.5 -13.5t-82 -36.5t-43.5 -53.5t-13 -64.5q0 -52 25 -85.5t70 -56t107.5 -38t137.5 -31.5q66 -14 131 -29.5t124 -36.5t110 -51t88.5 -73.5t59 -103.5t21.5 -142q0 -96 -35 -174.5 t-108.5 -134.5t-188 -86.5t-272.5 -30.5q-140 0 -247 25t-183.5 74t-124 121.5t-68.5 166.5zM342 1530v29l258 276h229l250 -276v-29h-159l-203 151h-4l-211 -151h-160z" />
<glyph unicode="&#x15d;" d="M72 270l247 37q12 -45 33 -73t52 -43t72.5 -20t94.5 -5q48 0 89.5 5.5t72 19t47.5 38t17 61.5q0 42 -24.5 66.5t-67 40t-100 27t-122.5 26.5q-68 15 -134 36t-118 57t-84 91.5t-32 140.5q0 77 30 137.5t88 103t143.5 65t196.5 22.5q88 0 164 -16.5t136 -52t100.5 -90.5 t56.5 -133l-249 -26q-7 39 -25 64.5t-44.5 40.5t-61.5 20.5t-77 5.5q-100 0 -150 -25.5t-50 -85.5q0 -37 20.5 -59t58 -36.5t89 -25t112.5 -25.5q75 -16 147.5 -37.5t129 -59t91 -96.5t34.5 -150q0 -78 -32.5 -140t-94.5 -105.5t-152 -67t-205 -23.5q-103 0 -186 15 t-145.5 49.5t-104.5 89.5t-63 136zM198 1183v28l258 318h229l250 -318v-28h-159l-203 192h-4l-211 -192h-160z" />
<glyph unicode="&#x15e;" horiz-adv-x="1366" d="M59 367l285 47q12 -47 35 -86t63.5 -67.5t101 -44t146.5 -15.5q150 0 229.5 45.5t79.5 142.5q0 58 -32 95t-85 61t-122 40t-144 31q-60 14 -120 29t-114.5 36t-101.5 50t-81.5 71.5t-54 99.5t-19.5 134q0 105 42 180t116.5 122.5t177.5 69.5t225 22q138 0 236.5 -21.5 t165 -65.5t105 -110.5t56.5 -155.5l-286 -39q-22 91 -89.5 137t-193.5 46q-78 0 -129.5 -13.5t-82 -36.5t-43.5 -53.5t-13 -64.5q0 -52 25 -85.5t70 -56t107.5 -38t137.5 -31.5q66 -14 131 -29.5t124 -36.5t110 -51t88.5 -73.5t59 -103.5t21.5 -142q0 -96 -35 -174.5 t-108.5 -134.5t-188 -86.5t-272.5 -30.5q-140 0 -247 25t-183.5 74t-124 121.5t-68.5 166.5zM518 -301q25 -5 46 -6t38 -1q75 0 106 18.5t31 50.5q0 35 -28 52t-94 17h-25.5t-26.5 -2l62 172h143l-33 -82q94 -5 139.5 -46t45.5 -107q0 -39 -15.5 -74t-51 -60.5t-93.5 -40.5 t-143 -15q-45 0 -101 6v118z" />
<glyph unicode="&#x15f;" d="M72 270l247 37q12 -45 33 -73t52 -43t72.5 -20t94.5 -5q48 0 89.5 5.5t72 19t47.5 38t17 61.5q0 42 -24.5 66.5t-67 40t-100 27t-122.5 26.5q-68 15 -134 36t-118 57t-84 91.5t-32 140.5q0 77 30 137.5t88 103t143.5 65t196.5 22.5q88 0 164 -16.5t136 -52t100.5 -90.5 t56.5 -133l-249 -26q-7 39 -25 64.5t-44.5 40.5t-61.5 20.5t-77 5.5q-100 0 -150 -25.5t-50 -85.5q0 -37 20.5 -59t58 -36.5t89 -25t112.5 -25.5q75 -16 147.5 -37.5t129 -59t91 -96.5t34.5 -150q0 -78 -32.5 -140t-94.5 -105.5t-152 -67t-205 -23.5q-103 0 -186 15 t-145.5 49.5t-104.5 89.5t-63 136zM382 -301q25 -5 46 -6t38 -1q75 0 106 18.5t31 50.5q0 35 -28 52t-94 17h-25.5t-26.5 -2l62 172h143l-33 -82q94 -5 139.5 -46t45.5 -107q0 -39 -15.5 -74t-51 -60.5t-93.5 -40.5t-143 -15q-45 0 -101 6v118z" />
<glyph unicode="&#x160;" horiz-adv-x="1366" d="M59 367l285 47q12 -47 35 -86t63.5 -67.5t101 -44t146.5 -15.5q150 0 229.5 45.5t79.5 142.5q0 58 -32 95t-85 61t-122 40t-144 31q-60 14 -120 29t-114.5 36t-101.5 50t-81.5 71.5t-54 99.5t-19.5 134q0 105 42 180t116.5 122.5t177.5 69.5t225 22q138 0 236.5 -21.5 t165 -65.5t105 -110.5t56.5 -155.5l-286 -39q-22 91 -89.5 137t-193.5 46q-78 0 -129.5 -13.5t-82 -36.5t-43.5 -53.5t-13 -64.5q0 -52 25 -85.5t70 -56t107.5 -38t137.5 -31.5q66 -14 131 -29.5t124 -36.5t110 -51t88.5 -73.5t59 -103.5t21.5 -142q0 -96 -35 -174.5 t-108.5 -134.5t-188 -86.5t-272.5 -30.5q-140 0 -247 25t-183.5 74t-124 121.5t-68.5 166.5zM319 1806v29h160l211 -152h4l203 152h159v-29l-250 -276h-229z" />
<glyph unicode="&#x161;" d="M72 270l247 37q12 -45 33 -73t52 -43t72.5 -20t94.5 -5q48 0 89.5 5.5t72 19t47.5 38t17 61.5q0 42 -24.5 66.5t-67 40t-100 27t-122.5 26.5q-68 15 -134 36t-118 57t-84 91.5t-32 140.5q0 77 30 137.5t88 103t143.5 65t196.5 22.5q88 0 164 -16.5t136 -52t100.5 -90.5 t56.5 -133l-249 -26q-7 39 -25 64.5t-44.5 40.5t-61.5 20.5t-77 5.5q-100 0 -150 -25.5t-50 -85.5q0 -37 20.5 -59t58 -36.5t89 -25t112.5 -25.5q75 -16 147.5 -37.5t129 -59t91 -96.5t34.5 -150q0 -78 -32.5 -140t-94.5 -105.5t-152 -67t-205 -23.5q-103 0 -186 15 t-145.5 49.5t-104.5 89.5t-63 136zM205 1500v29h160l211 -193h4l203 193h159v-29l-250 -317h-229z" />
<glyph unicode="&#x162;" horiz-adv-x="1251" d="M23 1181v228h1206v-228h-456v-1181h-295v1181h-455zM433 -301q25 -5 46 -6t38 -1q75 0 106 18.5t31 50.5q0 35 -28 52t-94 17h-25.5t-26.5 -2l62 172h143l-33 -82q94 -5 139.5 -46t45.5 -107q0 -39 -15.5 -74t-51 -60.5t-93.5 -40.5t-143 -15q-45 0 -101 6v118z" />
<glyph unicode="&#x163;" horiz-adv-x="682" d="M25 892v190h151l88 254h176v-254h205v-190h-205v-562q0 -79 30 -116.5t93 -37.5q26 0 47 4t47 10v-174q-52 -17 -110 -25.5t-127 -8.5q-124 0 -191 67.5t-67 204.5v638h-137zM167 -301q25 -5 46 -6t38 -1q75 0 106 18.5t31 50.5q0 35 -28 52t-94 17h-25.5t-26.5 -2 l62 172h143l-33 -82q94 -5 139.5 -46t45.5 -107q0 -39 -15.5 -74t-51 -60.5t-93.5 -40.5t-143 -15q-45 0 -101 6v118z" />
<glyph unicode="&#x164;" horiz-adv-x="1251" d="M23 1181v228h1206v-228h-456v-1181h-295v1181h-455zM262 1806v29h160l211 -152h4l203 152h159v-29l-250 -276h-229z" />
<glyph unicode="&#x165;" horiz-adv-x="981" d="M25 892v190h151l88 254h176v-254h205v-190h-205v-562q0 -79 30 -116.5t93 -37.5q26 0 47 4t47 10v-174q-52 -17 -110 -25.5t-127 -8.5q-124 0 -191 67.5t-67 204.5v638h-137zM736 1277v207h245v-146q0 -43 -7 -79t-20 -66.5t-30 -56t-37 -49.5h-137q45 48 69.5 96 t24.5 94h-108z" />
<glyph unicode="&#x166;" horiz-adv-x="1251" d="M23 1181v228h1206v-228h-456v-365h228v-190h-228v-626h-295v626h-227v190h227v365h-455z" />
<glyph unicode="&#x167;" horiz-adv-x="682" d="M25 892v190h151l88 254h176v-254h205v-190h-205v-229h185v-190h-185v-143q0 -79 30 -116.5t93 -37.5q26 0 47 4t47 10v-174q-52 -17 -110 -25.5t-127 -8.5q-124 0 -191 67.5t-67 204.5v219h-127v190h127v229h-137z" />
<glyph unicode="&#x168;" horiz-adv-x="1479" d="M123 528v881h295v-858q0 -89 22 -153.5t63 -106t99 -61t129 -19.5q72 0 132.5 20.5t104 63.5t67.5 109t24 157v848h295v-866q0 -145 -47 -251t-131 -175.5t-199.5 -103t-253.5 -33.5q-132 0 -242 31.5t-189.5 98t-124 170.5t-44.5 248zM348 1530q3 45 11 96t31.5 95 t66.5 73t116 29q45 0 90 -19t87 -42.5t78.5 -42.5t65.5 -19q25 0 41.5 8.5t28 24.5t18 39t11.5 51h135q-2 -45 -10 -96t-31 -95t-66 -73t-116 -29q-44 0 -88.5 19t-86.5 42.5t-79.5 42.5t-67.5 19q-26 0 -43 -8.5t-27.5 -24.5t-16.5 -38.5t-11 -51.5h-137z" />
<glyph unicode="&#x169;" horiz-adv-x="1251" d="M127 395v687h281v-607q0 -63 10 -115.5t33 -90t59.5 -58.5t89.5 -21q51 0 92.5 22.5t71.5 64t46.5 99t16.5 126.5v580h281v-840q0 -34 0.5 -71.5t2 -71t3 -60t2.5 -39.5h-268q-1 12 -3.5 38.5t-4.5 58.5l-2 64q-2 32 -2 54h-5q-56 -123 -142.5 -179t-205.5 -56 q-97 0 -165 32t-110.5 87.5t-61.5 131.5t-19 164zM229 1183q3 45 11 96t31.5 95t66.5 73t116 29q45 0 90 -19t87 -42.5t78.5 -42.5t65.5 -19q25 0 41.5 8.5t28 24.5t18 39t11.5 51h135q-2 -45 -10 -96t-31 -95t-66 -73t-116 -29q-44 0 -88.5 19t-86.5 42.5t-79.5 42.5 t-67.5 19q-26 0 -43 -8.5t-27.5 -24.5t-16.5 -38.5t-11 -51.5h-137z" />
<glyph unicode="&#x16a;" horiz-adv-x="1479" d="M123 528v881h295v-858q0 -89 22 -153.5t63 -106t99 -61t129 -19.5q72 0 132.5 20.5t104 63.5t67.5 109t24 157v848h295v-866q0 -145 -47 -251t-131 -175.5t-199.5 -103t-253.5 -33.5q-132 0 -242 31.5t-189.5 98t-124 170.5t-44.5 248zM433 1532v168h612v-168h-612z" />
<glyph unicode="&#x16b;" horiz-adv-x="1251" d="M127 395v687h281v-607q0 -63 10 -115.5t33 -90t59.5 -58.5t89.5 -21q51 0 92.5 22.5t71.5 64t46.5 99t16.5 126.5v580h281v-840q0 -34 0.5 -71.5t2 -71t3 -60t2.5 -39.5h-268q-1 12 -3.5 38.5t-4.5 58.5l-2 64q-2 32 -2 54h-5q-56 -123 -142.5 -179t-205.5 -56 q-97 0 -165 32t-110.5 87.5t-61.5 131.5t-19 164zM312 1203v168h612v-168h-612z" />
<glyph unicode="&#x16c;" horiz-adv-x="1479" d="M123 528v881h295v-858q0 -89 22 -153.5t63 -106t99 -61t129 -19.5q72 0 132.5 20.5t104 63.5t67.5 109t24 157v848h295v-866q0 -145 -47 -251t-131 -175.5t-199.5 -103t-253.5 -33.5q-132 0 -242 31.5t-189.5 98t-124 170.5t-44.5 248zM385 1808h163q8 -32 26 -57 t43 -42.5t56.5 -27t65.5 -9.5q36 0 67.5 9.5t56.5 27t42 42.5t24 57h164q-8 -57 -33.5 -109t-69 -91.5t-106.5 -63.5t-147 -24q-80 0 -143 24t-107.5 63.5t-70.5 91.5t-31 109z" />
<glyph unicode="&#x16d;" horiz-adv-x="1251" d="M127 395v687h281v-607q0 -63 10 -115.5t33 -90t59.5 -58.5t89.5 -21q51 0 92.5 22.5t71.5 64t46.5 99t16.5 126.5v580h281v-840q0 -34 0.5 -71.5t2 -71t3 -60t2.5 -39.5h-268q-1 12 -3.5 38.5t-4.5 58.5l-2 64q-2 32 -2 54h-5q-56 -123 -142.5 -179t-205.5 -56 q-97 0 -165 32t-110.5 87.5t-61.5 131.5t-19 164zM270 1506h163q8 -39 26 -70t43 -52t56.5 -32.5t65.5 -11.5q36 0 67.5 11.5t56.5 32.5t42 52t24 70h164q-8 -66 -33.5 -124.5t-69 -103t-106.5 -70t-147 -25.5q-80 0 -143 25.5t-107.5 70t-70.5 103t-31 124.5z" />
<glyph unicode="&#x16e;" horiz-adv-x="1479" d="M123 528v881h295v-858q0 -89 22 -153.5t63 -106t99 -61t129 -19.5q72 0 132.5 20.5t104 63.5t67.5 109t24 157v848h295v-866q0 -145 -47 -251t-131 -175.5t-199.5 -103t-253.5 -33.5q-132 0 -242 31.5t-189.5 98t-124 170.5t-44.5 248zM486 1724q0 52 20 98.5t54.5 81 t81 54.5t98.5 20t98.5 -20t81 -54.5t54.5 -81t20 -98.5q0 -53 -20 -99.5t-54.5 -81t-81 -54t-98.5 -19.5t-98.5 19.5t-81 54t-54.5 81t-20 99.5zM615 1724q0 -27 9.5 -50.5t26.5 -40.5t40 -27t49 -10t49.5 10t40.5 27t27 40.5t10 50.5q0 26 -10 48.5t-27 39.5t-40.5 27 t-49.5 10t-49 -10t-40 -27t-26.5 -39.5t-9.5 -48.5z" />
<glyph unicode="&#x16f;" horiz-adv-x="1251" d="M127 395v687h281v-607q0 -63 10 -115.5t33 -90t59.5 -58.5t89.5 -21q51 0 92.5 22.5t71.5 64t46.5 99t16.5 126.5v580h281v-840q0 -34 0.5 -71.5t2 -71t3 -60t2.5 -39.5h-268q-1 12 -3.5 38.5t-4.5 58.5l-2 64q-2 32 -2 54h-5q-56 -123 -142.5 -179t-205.5 -56 q-97 0 -165 32t-110.5 87.5t-61.5 131.5t-19 164zM367 1390q0 52 20 98.5t54.5 81t81 54.5t98.5 20t98.5 -20t81 -54.5t54.5 -81t20 -98.5q0 -53 -20 -99.5t-54.5 -81t-81 -54t-98.5 -19.5t-98.5 19.5t-81 54t-54.5 81t-20 99.5zM496 1390q0 -27 9.5 -50.5t26.5 -40.5 t40 -27t49 -10t49.5 10t40.5 27t27 40.5t10 50.5q0 26 -10 48.5t-27 39.5t-40.5 27t-49.5 10t-49 -10t-40 -27t-26.5 -39.5t-9.5 -48.5z" />
<glyph unicode="&#x170;" horiz-adv-x="1479" d="M123 528v881h295v-858q0 -89 22 -153.5t63 -106t99 -61t129 -19.5q72 0 132.5 20.5t104 63.5t67.5 109t24 157v848h295v-866q0 -145 -47 -251t-131 -175.5t-199.5 -103t-253.5 -33.5q-132 0 -242 31.5t-189.5 98t-124 170.5t-44.5 248zM393 1530v34l215 252h235v-43 l-318 -243h-132zM799 1530v34l215 252h235v-43l-318 -243h-132z" />
<glyph unicode="&#x171;" horiz-adv-x="1251" d="M127 395v687h281v-607q0 -63 10 -115.5t33 -90t59.5 -58.5t89.5 -21q51 0 92.5 22.5t71.5 64t46.5 99t16.5 126.5v580h281v-840q0 -34 0.5 -71.5t2 -71t3 -60t2.5 -39.5h-268q-1 12 -3.5 38.5t-4.5 58.5l-2 64q-2 32 -2 54h-5q-56 -123 -142.5 -179t-205.5 -56 q-97 0 -165 32t-110.5 87.5t-61.5 131.5t-19 164zM257 1184v34l225 266h235v-43l-318 -257h-142zM663 1184v34l225 266h235v-43l-318 -257h-142z" />
<glyph unicode="&#x172;" horiz-adv-x="1479" d="M123 528v881h295v-858q0 -89 22 -153.5t63 -106t99 -61t129 -19.5q72 0 132.5 20.5t104 63.5t67.5 109t24 157v848h295v-866q0 -145 -47 -251t-131 -175.5t-199.5 -103t-253.5 -33.5q-132 0 -242 31.5t-189.5 98t-124 170.5t-44.5 248zM620 -225q0 48 16 88.5t40 71.5 t51.5 52.5t50.5 33.5h153q-63 -42 -96 -99.5t-33 -110.5q0 -42 24.5 -67.5t69.5 -25.5q31 0 57.5 7t54.5 20v-137q-63 -33 -151 -33q-51 0 -94.5 12.5t-75 38t-49.5 62.5t-18 87z" />
<glyph unicode="&#x173;" horiz-adv-x="1251" d="M127 395v687h281v-607q0 -63 10 -115.5t33 -90t59.5 -58.5t89.5 -21q51 0 92.5 22.5t71.5 64t46.5 99t16.5 126.5v580h281v-840q0 -34 0.5 -71.5t2 -71t3 -60t2.5 -39.5h-268q-1 12 -3.5 38.5t-4.5 58.5l-2 64q-2 32 -2 54h-5q-56 -123 -142.5 -179t-205.5 -56 q-97 0 -165 32t-110.5 87.5t-61.5 131.5t-19 164zM721 -225q0 48 16 88.5t40 71.5t51.5 52.5t50.5 33.5h153q-63 -42 -96 -99.5t-33 -110.5q0 -42 24.5 -67.5t69.5 -25.5q31 0 57.5 7t54.5 20v-137q-63 -33 -151 -33q-51 0 -94.5 12.5t-75 38t-49.5 62.5t-18 87z" />
<glyph unicode="&#x174;" horiz-adv-x="1933" d="M2 1409h299l176 -784q15 -64 28 -126t24 -111q12 -57 22 -109q15 74 29 144q6 30 13 62t13.5 63t13 59.5t11.5 51.5l174 750h330l178 -750q6 -24 12 -53.5t12 -61.5l12 -62q6 -32 11 -62q12 -70 24 -141q12 56 25 116q11 51 25 112t28 118l170 784h299l-364 -1409h-350 l-191 815q-9 37 -19.5 88t-19.5 99q-11 55 -20 114q-11 -59 -22 -115q-5 -24 -10 -49.5t-10.5 -50t-10 -46.5t-9.5 -40l-190 -815h-350zM600 1530v29l258 276h229l250 -276v-29h-159l-203 151h-4l-211 -151h-160z" />
<glyph unicode="&#x175;" horiz-adv-x="1593" d="M-6 1082h264l137 -636q6 -27 13 -60.5t13 -62.5q7 -34 15 -68q7 38 14 74q6 31 13 63t12 54l170 636h301l166 -636q7 -26 14 -59t13 -62q7 -34 14 -70q8 36 15 70q6 29 13 62t13 59l143 636h260l-284 -1082h-297l-172 660q-8 31 -16 69.5t-15 72.5l-16 80l-18 -80 q-8 -34 -17 -73t-17 -71l-174 -658h-297zM429 1183v28l258 318h229l250 -318v-28h-159l-203 192h-4l-211 -192h-160z" />
<glyph unicode="&#x176;" horiz-adv-x="1366" d="M35 1409h309l338 -596l342 596h309l-502 -831v-578h-294v578zM316 1530v29l258 276h229l250 -276v-29h-159l-203 151h-4l-211 -151h-160z" />
<glyph unicode="&#x177;" d="M16 1082h297l170 -507q4 -11 12.5 -37t19 -59.5t21.5 -70.5t21 -70.5t17 -59.5t10 -37q3 11 9.5 36.5t15 58t18.5 68.5t19 69t16.5 59.5t11.5 38.5l160 511h294l-428 -1139q-39 -95 -79 -164t-88.5 -114.5t-109 -67.5t-140.5 -22q-44 0 -90 3t-87 10v200q20 -3 48.5 -5.5 t48.5 -2.5q41 0 73 9t58 30t48.5 56t43.5 88l18 48zM212 1183v28l258 318h229l250 -318v-28h-159l-203 192h-4l-211 -192h-160z" />
<glyph unicode="&#x178;" horiz-adv-x="1366" d="M35 1409h309l338 -596l342 596h309l-502 -831v-578h-294v578zM353 1530v219h194v-219h-194zM807 1530v219h197v-219h-197z" />
<glyph unicode="&#x179;" horiz-adv-x="1251" d="M61 0v209l762 969h-686v231h1014v-205l-762 -973h803v-231h-1131zM473 1530v31l252 254h258v-43l-340 -242h-170z" />
<glyph unicode="&#x17a;" horiz-adv-x="1024" d="M68 0v199l540 680h-499v203h809v-201l-537 -676h586v-205h-899zM336 1183v31l252 288h258v-43l-340 -276h-170z" />
<glyph unicode="&#x17b;" horiz-adv-x="1251" d="M61 0v209l762 969h-686v231h1014v-205l-762 -973h803v-231h-1131zM496 1547v207h281v-207h-281z" />
<glyph unicode="&#x17c;" horiz-adv-x="1024" d="M68 0v199l540 680h-499v203h809v-201l-537 -676h586v-205h-899zM389 1277v207h281v-207h-281z" />
<glyph unicode="&#x17d;" horiz-adv-x="1251" d="M61 0v209l762 969h-686v231h1014v-205l-762 -973h803v-231h-1131zM274 1806v29h160l211 -152h4l203 152h159v-29l-250 -276h-229z" />
<glyph unicode="&#x17e;" horiz-adv-x="1024" d="M68 0v199l540 680h-499v203h809v-201l-537 -676h586v-205h-899zM143 1500v29h160l211 -193h4l203 193h159v-29l-250 -317h-229z" />
<glyph unicode="&#x17f;" horiz-adv-x="569" d="M142 0v1195q0 62 15 114.5t51 91.5t97 61t152 22q48 0 94.5 -5t83.5 -11v-181q-18 4 -40.5 6.5t-41.5 2.5q-39 0 -64.5 -8t-40 -24t-20.5 -40.5t-6 -56.5v-1167h-280z" />
<glyph unicode="&#x192;" d="M168 -425l251 1265h-158l37 190h158l27 135q11 62 35.5 114.5t67.5 91.5t108 61t157 22q23 0 48.5 -2.5t50 -6.5t46.5 -9.5t37 -11.5l-40 -177q-9 3 -22.5 6t-27.5 5.5t-27.5 4t-24.5 1.5q-65 0 -93.5 -33t-40.5 -94l-20 -107h212l-36 -190h-213l-251 -1265h-281z" />
<glyph unicode="&#x1fa;" horiz-adv-x="1479" d="M51 0l514 1409h348l512 -1409h-292l-125 360h-537l-125 -360h-295zM485 1537q0 52 20 98.5t54.5 81t81 54.5t98.5 20t98.5 -20t81 -54.5t54.5 -81t20 -98.5q0 -53 -20 -99.5t-54.5 -81t-81 -54t-98.5 -19.5t-98.5 19.5t-81 54t-54.5 81t-20 99.5zM537 582h405l-139 405 q-12 35 -23.5 70.5t-20 65t-14 48.5t-6.5 21q-1 -3 -6 -22t-13.5 -48t-20 -64.5t-23.5 -70.5zM586 1831v31l252 254h258v-43l-340 -242h-170zM614 1537q0 -27 9.5 -50.5t26.5 -40.5t40 -27t49 -10t49.5 10t40.5 27t27 40.5t10 50.5q0 26 -10 48.5t-27 39.5t-40.5 27 t-49.5 10t-49 -10t-40 -27t-26.5 -39.5t-9.5 -48.5z" />
<glyph unicode="&#x1fb;" d="M60 306q0 96 33.5 161.5t91.5 106t136 59t166 19.5l233 4v55q0 59 -10.5 98.5t-30.5 64.5t-49.5 35.5t-67.5 10.5q-35 0 -62.5 -7t-47.5 -24.5t-32.5 -47t-17.5 -74.5l-293 14q12 71 44 129.5t88.5 101.5t139 66.5t193.5 23.5q101 0 180 -25t134 -74.5t84 -121.5t29 -167 v-394q0 -38 3.5 -68t13 -50.5t27 -31t45.5 -10.5q32 0 62 6v-152q-25 -6 -45 -11t-40 -8t-42.5 -5t-52.5 -2q-106 0 -156.5 52t-60.5 153h-6q-56 -101 -143.5 -157t-212.5 -56q-78 0 -139.5 21.5t-104.5 63t-66 102.5t-23 139zM315 1390q0 52 20 98.5t54.5 81t81 54.5 t98.5 20t98.5 -20t81 -54.5t54.5 -81t20 -98.5q0 -53 -20 -99.5t-54.5 -81t-81 -54t-98.5 -19.5t-98.5 19.5t-81 54t-54.5 81t-20 99.5zM353 328q0 -77 35.5 -114.5t94.5 -37.5q54 0 98 23t74.5 60.5t47.5 86.5t17 100v55l-144 -2q-45 -2 -85.5 -7.5t-71 -23t-48.5 -50.5 t-18 -90zM442 1693v31l252 288h258v-43l-340 -276h-170zM444 1390q0 -27 9.5 -50.5t26.5 -40.5t40 -27t49 -10t49.5 10t40.5 27t27 40.5t10 50.5q0 26 -10 48.5t-27 39.5t-40.5 27t-49.5 10t-49 -10t-40 -27t-26.5 -39.5t-9.5 -48.5z" />
<glyph unicode="&#x1fc;" horiz-adv-x="2048" d="M4 0l700 1409h1223v-227h-701v-355h639v-221h-639v-379h742v-227h-1037v360h-450l-172 -360h-305zM583 582h348v610h-61q-4 -9 -17 -37t-28 -61.5t-29.5 -64.5t-21.5 -46zM1083 1530v31l252 254h258v-43l-340 -242h-170z" />
<glyph unicode="&#x1fd;" horiz-adv-x="1821" d="M66 306q0 96 34.5 161t94.5 105.5t140 59t171 20.5l240 4v55q0 59 -11 98.5t-32.5 64.5t-53 35.5t-71.5 10.5q-37 0 -66.5 -7t-50.5 -24.5t-34.5 -47t-18.5 -74.5l-293 14q12 71 44.5 129.5t89.5 101.5t140 66.5t197 23.5q217 0 333 -107q69 57 155.5 82t182.5 25 q128 0 218.5 -44.5t148.5 -124.5t85 -191.5t27 -246.5v-19h-694q0 -65 13 -121.5t40.5 -98t70 -65t101.5 -23.5q74 0 121 31.5t67 97.5l265 -23q-18 -46 -50.5 -98t-86.5 -95.5t-134.5 -72t-195.5 -28.5q-151 0 -261 56.5t-173 172.5q-29 -50 -67.5 -92t-89 -72.5 t-114 -47.5t-142.5 -17t-142 21.5t-107 63t-67.5 102.5t-23.5 139zM359 328q0 -77 37.5 -114.5t99.5 -37.5q57 0 103 24.5t79 64t50.5 90t17.5 101.5v45l-152 -2q-48 -2 -90.5 -7.5t-74.5 -23t-51 -50.5t-19 -90zM774 1183v31l252 288h258v-43l-340 -276h-170zM1044 663h420 q-8 131 -63 196.5t-148 65.5q-43 0 -80.5 -14.5t-65 -46t-44.5 -81.5t-19 -120z" />
<glyph unicode="&#x1fe;" horiz-adv-x="1593" d="M84 711q0 165 46.5 298t137 226.5t223 144t304.5 50.5q103 0 191.5 -19.5t162.5 -54.5l82 117h193l-142 -203q112 -94 169 -236.5t57 -322.5q0 -165 -49 -300t-141 -231t-225 -148t-300 -52q-212 0 -360 77l-91 -129l-195 -1l154 218q-109 99 -163 243.5t-54 322.5z M381 711q0 -99 20.5 -183t63.5 -149l539 768q-45 25 -96 38t-113 13q-103 0 -180.5 -34.5t-129.5 -98.5t-78 -153.5t-26 -200.5zM580 266q43 -26 96.5 -40.5t116.5 -14.5q108 0 186.5 37.5t129 104t74.5 158.5t24 200q0 100 -21.5 182.5t-64.5 144.5zM625 1530v31l252 254 h258v-43l-340 -242h-170z" />
<glyph unicode="&#x1ff;" horiz-adv-x="1251" d="M1 -55l197 215q-59 73 -88.5 169.5t-29.5 212.5q0 121 33.5 223.5t101.5 177.5t171 117t241 42q104 0 185.5 -21.5t144.5 -61.5l101 114h184l-184 -206q59 -74 86 -172t27 -213q0 -124 -34.5 -227t-103.5 -177.5t-172 -116t-240 -41.5q-99 0 -179.5 23t-144.5 66 l-113 -124h-183zM375 542q0 -92 17 -163l407 461q-60 69 -168 69q-124 0 -190 -88t-66 -279zM454 244q32 -37 73 -54.5t91 -17.5q62 0 110.5 21.5t81.5 66.5t50 115t17 167q0 47 -4 87.5t-12 74.5zM465 1183v31l252 288h258v-43l-340 -276h-170z" />
<glyph unicode="&#x218;" horiz-adv-x="1366" d="M59 367l285 47q12 -47 35 -86t63.5 -67.5t101 -44t146.5 -15.5q150 0 229.5 45.5t79.5 142.5q0 58 -32 95t-85 61t-122 40t-144 31q-60 14 -120 29t-114.5 36t-101.5 50t-81.5 71.5t-54 99.5t-19.5 134q0 105 42 180t116.5 122.5t177.5 69.5t225 22q138 0 236.5 -21.5 t165 -65.5t105 -110.5t56.5 -155.5l-286 -39q-22 91 -89.5 137t-193.5 46q-78 0 -129.5 -13.5t-82 -36.5t-43.5 -53.5t-13 -64.5q0 -52 25 -85.5t70 -56t107.5 -38t137.5 -31.5q66 -14 131 -29.5t124 -36.5t110 -51t88.5 -73.5t59 -103.5t21.5 -142q0 -96 -35 -174.5 t-108.5 -134.5t-188 -86.5t-272.5 -30.5q-140 0 -247 25t-183.5 74t-124 121.5t-68.5 166.5zM509 -78h245v-126q0 -44 -7 -79.5t-20 -66t-30 -56t-37 -49.5h-137q45 48 69.5 90t24.5 80h-108v207z" />
<glyph unicode="&#x219;" d="M72 270l247 37q12 -45 33 -73t52 -43t72.5 -20t94.5 -5q48 0 89.5 5.5t72 19t47.5 38t17 61.5q0 42 -24.5 66.5t-67 40t-100 27t-122.5 26.5q-68 15 -134 36t-118 57t-84 91.5t-32 140.5q0 77 30 137.5t88 103t143.5 65t196.5 22.5q88 0 164 -16.5t136 -52t100.5 -90.5 t56.5 -133l-249 -26q-7 39 -25 64.5t-44.5 40.5t-61.5 20.5t-77 5.5q-100 0 -150 -25.5t-50 -85.5q0 -37 20.5 -59t58 -36.5t89 -25t112.5 -25.5q75 -16 147.5 -37.5t129 -59t91 -96.5t34.5 -150q0 -78 -32.5 -140t-94.5 -105.5t-152 -67t-205 -23.5q-103 0 -186 15 t-145.5 49.5t-104.5 89.5t-63 136zM460 -78h245v-126q0 -44 -7 -79.5t-20 -66t-30 -56t-37 -49.5h-137q45 48 69.5 90t24.5 80h-108v207z" />
<glyph unicode="&#x21a;" horiz-adv-x="1251" d="M23 1181v228h1206v-228h-456v-1181h-295v1181h-455zM509 -78h245v-126q0 -44 -7 -79.5t-20 -66t-30 -56t-37 -49.5h-137q45 48 69.5 90t24.5 80h-108v207z" />
<glyph unicode="&#x21b;" horiz-adv-x="682" d="M25 892v190h151l88 254h176v-254h205v-190h-205v-562q0 -79 30 -116.5t93 -37.5q26 0 47 4t47 10v-174q-52 -17 -110 -25.5t-127 -8.5q-124 0 -191 67.5t-67 204.5v638h-137zM241 -78h245v-126q0 -44 -7 -79.5t-20 -66t-30 -56t-37 -49.5h-137q45 48 69.5 90t24.5 80 h-108v207z" />
<glyph unicode="&#x2c6;" horiz-adv-x="682" d="M0 1183v28l258 318h229l250 -318v-28h-159l-203 192h-4l-211 -192h-160z" />
<glyph unicode="&#x2c7;" horiz-adv-x="682" d="M0 1500v29h160l211 -193h4l203 193h159v-29l-250 -317h-229z" />
<glyph unicode="&#x2d8;" horiz-adv-x="682" d="M-57 1506h163q8 -39 26 -70t43 -52t56.5 -32.5t65.5 -11.5q36 0 67.5 11.5t56.5 32.5t42 52t24 70h164q-8 -66 -33.5 -124.5t-69 -103t-106.5 -70t-147 -25.5q-80 0 -143 25.5t-107.5 70t-70.5 103t-31 124.5z" />
<glyph unicode="&#x2d9;" horiz-adv-x="682" d="M200 1277v207h281v-207h-281z" />
<glyph unicode="&#x2da;" horiz-adv-x="682" d="M39 1390q0 52 20 98.5t54.5 81t81 54.5t98.5 20t98.5 -20t81 -54.5t54.5 -81t20 -98.5q0 -53 -20 -99.5t-54.5 -81t-81 -54t-98.5 -19.5t-98.5 19.5t-81 54t-54.5 81t-20 99.5zM168 1390q0 -27 9.5 -50.5t26.5 -40.5t40 -27t49 -10t49.5 10t40.5 27t27 40.5t10 50.5 q0 26 -10 48.5t-27 39.5t-40.5 27t-49.5 10t-49 -10t-40 -27t-26.5 -39.5t-9.5 -48.5z" />
<glyph unicode="&#x2db;" horiz-adv-x="682" d="M76 -225q0 48 16 88.5t40 71.5t51.5 52.5t50.5 33.5h153q-63 -42 -96 -99.5t-33 -110.5q0 -42 24.5 -67.5t69.5 -25.5q31 0 57.5 7t54.5 20v-137q-63 -33 -151 -33q-51 0 -94.5 12.5t-75 38t-49.5 62.5t-18 87z" />
<glyph unicode="&#x2dc;" horiz-adv-x="682" d="M-14 1183q3 45 11 96t31.5 95t66.5 73t116 29q45 0 90 -19t87 -42.5t78.5 -42.5t65.5 -19q25 0 41.5 8.5t28 24.5t18 39t11.5 51h135q-2 -45 -10 -96t-31 -95t-66 -73t-116 -29q-44 0 -88.5 19t-86.5 42.5t-79.5 42.5t-67.5 19q-26 0 -43 -8.5t-27.5 -24.5t-16.5 -38.5 t-11 -51.5h-137z" />
<glyph unicode="&#x2dd;" horiz-adv-x="682" d="M-92 1184v34l225 266h235v-43l-318 -257h-142zM314 1184v34l225 266h235v-43l-318 -257h-142z" />
<glyph unicode="&#x386;" horiz-adv-x="1479" d="M36 1085v33l69 292h257v-37l-221 -288h-105zM51 0l514 1409h348l512 -1409h-292l-125 360h-537l-125 -360h-295zM537 582h405l-139 405q-12 35 -23.5 70.5t-20 65t-14 48.5t-6.5 21q-1 -3 -6 -22t-13.5 -48t-20 -64.5t-23.5 -70.5z" />
<glyph unicode="&#x388;" horiz-adv-x="1747" d="M46 1085v33l69 292h257v-37l-221 -288h-105zM518 0v1409h1108v-228h-813v-354h752v-228h-752v-371h854v-228h-1149z" />
<glyph unicode="&#x389;" horiz-adv-x="1855" d="M36 1085v33l69 292h257v-37l-221 -288h-105zM513 0v1409h295v-561h614v561h295v-1409h-295v604h-614v-604h-295z" />
<glyph unicode="&#x38a;" horiz-adv-x="970" d="M36 1085v33l69 292h257v-37l-221 -288h-105zM538 0v1409h295v-1409h-295z" />
<glyph unicode="&#x38c;" horiz-adv-x="1689" d="M-26 1085v33l69 292h257v-37l-221 -288h-105zM180 711q0 165 46.5 298t137 226.5t223 144t304.5 50.5t304.5 -51t223 -145t137.5 -226.5t47 -296.5q0 -165 -49 -300t-141 -231t-224.5 -148t-299.5 -52q-177 0 -309.5 54.5t-221.5 152t-133.5 231.5t-44.5 293zM477 711 q0 -110 26.5 -201.5t78.5 -157.5t129 -103t178 -37q108 0 186 37.5t128.5 104t74.5 158t24 199.5q0 111 -26.5 200.5t-78.5 153.5t-128.5 98.5t-177.5 34.5q-103 0 -180.5 -34.5t-129.5 -98.5t-78 -153.5t-26 -200.5z" />
<glyph unicode="&#x38e;" horiz-adv-x="1899" d="M128 1085v33l69 292h257v-37l-221 -288h-105zM567 1409h309l338 -596l342 596h309l-502 -831v-578h-294v578z" />
<glyph unicode="&#x38f;" horiz-adv-x="1716" d="M-48 1085v33l69 292h257v-37l-221 -288h-105zM157 0v228h274q26 0 57 -1.5t58 -3.5q32 -3 62 -6q-112 51 -192.5 115t-131.5 140.5t-75 165.5t-24 191q0 141 49 252.5t141 189t223.5 118.5t296.5 41t296.5 -41t223.5 -119t141 -189.5t49 -252.5q0 -102 -24 -190.5 t-76 -165t-132.5 -140.5t-193.5 -115q31 3 63 6q27 2 58 3.5t57 1.5h276v-228h-671v309q181 86 262 201.5t81 263.5q0 101 -27.5 180t-80 133t-129.5 82.5t-175 28.5q-99 0 -175.5 -28.5t-129.5 -82.5t-80.5 -133t-27.5 -180q0 -148 81.5 -263.5t262.5 -201.5v-309h-667z " />
<glyph unicode="&#x390;" horiz-adv-x="569" d="M-87 1231v222h200v-222h-200zM137 236v846h282v-855q0 -32 6 -64t16.5 -62t25 -55.5t32.5 -45.5h-300q-15 16 -27 42.5t-19.5 58.5t-11.5 67t-4 68zM164 1190v33l59 398h237v-37l-181 -394h-115zM445 1231v222h200v-222h-200z" />
<glyph unicode="&#x391;" horiz-adv-x="1479" d="M51 0l514 1409h348l512 -1409h-292l-125 360h-537l-125 -360h-295zM537 582h405l-139 405q-12 35 -23.5 70.5t-20 65t-14 48.5t-6.5 21q-1 -3 -6 -22t-13.5 -48t-20 -64.5t-23.5 -70.5z" />
<glyph unicode="&#x392;" horiz-adv-x="1479" d="M137 0v1409h645q125 0 222.5 -21.5t164.5 -65.5t101.5 -110.5t34.5 -156.5q0 -120 -66.5 -202.5t-202.5 -111.5q171 -20 260.5 -107.5t89.5 -231.5q0 -107 -43 -183.5t-117.5 -125t-173.5 -71t-210 -22.5h-705zM432 219h385q58 0 108 9.5t86.5 33t57.5 63.5t21 100 q0 56 -22 94t-60.5 61t-90 33t-111.5 10h-374v-404zM432 841h338q125 0 181.5 43.5t56.5 130.5q0 95 -60.5 135t-179.5 40h-336v-349z" />
<glyph unicode="&#x393;" horiz-adv-x="1231" d="M137 1v1408h1061v-228h-766v-1180h-295z" />
<glyph unicode="&#x394;" horiz-adv-x="1472" d="M83 0l1 226l483 1183l345 -1l476 -1182v-226h-1305zM391 244h695l-266 698q-15 41 -29.5 81.5t-26 75t-18.5 59l-9 31.5q-1 -7 -9 -32t-19 -60t-25.5 -76t-29.5 -81z" />
<glyph unicode="&#x395;" horiz-adv-x="1366" d="M137 0v1409h1108v-228h-813v-354h752v-228h-752v-371h854v-228h-1149z" />
<glyph unicode="&#x396;" horiz-adv-x="1251" d="M61 0v209l762 969h-686v231h1014v-205l-762 -973h803v-231h-1131z" />
<glyph unicode="&#x397;" horiz-adv-x="1479" d="M137 0v1409h295v-561h614v561h295v-1409h-295v604h-614v-604h-295z" />
<glyph unicode="&#x398;" horiz-adv-x="1593" d="M84 711q0 165 46.5 298t137 226.5t223 144t304.5 50.5t304.5 -51t223 -145t137.5 -226.5t47 -296.5q0 -165 -49 -300t-141 -231t-224.5 -148t-299.5 -52q-177 0 -309.5 54.5t-221.5 152t-133.5 231.5t-44.5 293zM381 711q0 -110 26.5 -201.5t78.5 -157.5t129 -103 t178 -37q108 0 186 37.5t128.5 104t74.5 158t24 199.5q0 111 -26.5 200.5t-78.5 153.5t-128.5 98.5t-177.5 34.5q-103 0 -180.5 -34.5t-129.5 -98.5t-78 -153.5t-26 -200.5zM502 599v228h587v-228h-587z" />
<glyph unicode="&#x399;" horiz-adv-x="569" d="M137 0v1409h295v-1409h-295z" />
<glyph unicode="&#x39a;" horiz-adv-x="1479" d="M137 0v1409h295v-639l635 639h344l-602 -596l651 -813h-348l-506 647l-174 -133v-514h-295z" />
<glyph unicode="&#x39b;" horiz-adv-x="1366" d="M14 1l521 1409h299l518 -1409h-305l-289 885q-14 48 -27.5 95t-23.5 85q-11 45 -21 86q-11 -42 -23 -88q-11 -39 -24 -86t-27 -92l-290 -885h-308z" />
<glyph unicode="&#x39c;" horiz-adv-x="1706" d="M137 0v1409h395l252 -788q10 -31 21.5 -76t22.5 -87q12 -49 26 -102q14 52 27 100q6 21 12 43t12 43t12 40t11 34l248 793h393v-1409h-262v854q0 51 1.5 105t3.5 99q3 53 5 103q-21 -79 -40 -150q-8 -30 -17 -62t-17.5 -62t-16.5 -56t-14 -45l-254 -786h-210l-254 786 q-6 19 -13.5 45t-16 56t-17.5 62t-18 62q-20 71 -42 150q3 -58 6 -114q2 -48 4 -101t2 -92v-854h-262z" />
<glyph unicode="&#x39d;" horiz-adv-x="1479" d="M137 0v1409h337l623 -1094q-5 42 -9 88q-4 39 -6.5 88t-2.5 99v819h262v-1409h-346l-614 1085q5 -44 9 -88q4 -38 6.5 -82t2.5 -84v-831h-262z" />
<glyph unicode="&#x39e;" horiz-adv-x="1318" d="M84 0v228h1151v-228h-1151zM119 1181v228h1081v-228h-1081zM239 599v228h841v-228h-841z" />
<glyph unicode="&#x39f;" horiz-adv-x="1593" d="M84 711q0 165 46.5 298t137 226.5t223 144t304.5 50.5t304.5 -51t223 -145t137.5 -226.5t47 -296.5q0 -165 -49 -300t-141 -231t-224.5 -148t-299.5 -52q-177 0 -309.5 54.5t-221.5 152t-133.5 231.5t-44.5 293zM381 711q0 -110 26.5 -201.5t78.5 -157.5t129 -103 t178 -37q108 0 186 37.5t128.5 104t74.5 158t24 199.5q0 111 -26.5 200.5t-78.5 153.5t-128.5 98.5t-177.5 34.5q-103 0 -180.5 -34.5t-129.5 -98.5t-78 -153.5t-26 -200.5z" />
<glyph unicode="&#x3a0;" horiz-adv-x="1479" d="M137 0v1409h1204v-1409h-285v1165h-625v-1165h-294z" />
<glyph unicode="&#x3a1;" horiz-adv-x="1366" d="M137 0v1409h633q135 0 234 -32.5t164 -91.5t96.5 -141t31.5 -181q0 -91 -30.5 -175.5t-93.5 -149.5t-160 -103.5t-230 -38.5h-350v-496h-295zM432 723h313q66 0 113.5 17t79 48t46.5 74.5t15 95.5q0 109 -65.5 165.5t-196.5 56.5h-305v-457z" />
<glyph unicode="&#x3a3;" horiz-adv-x="1229" d="M90 0v234l448 507l-431 435v233h999v-228h-697l371 -373v-134l-394 -446h781v-228h-1077z" />
<glyph unicode="&#x3a4;" horiz-adv-x="1251" d="M23 1181v228h1206v-228h-456v-1181h-295v1181h-455z" />
<glyph unicode="&#x3a5;" horiz-adv-x="1366" d="M35 1409h309l338 -596l342 596h309l-502 -831v-578h-294v578z" />
<glyph unicode="&#x3a6;" horiz-adv-x="1681" d="M63 734q0 119 37 216.5t111.5 166.5t186.5 106.5t262 37.5h42v158h278v-158h42q150 0 262 -37.5t186.5 -106.5t111.5 -166.5t37 -216.5q0 -110 -35.5 -209t-108.5 -174t-182.5 -119t-258.5 -44h-54v-199h-278v199h-54q-148 0 -258 44t-183 119t-108.5 174t-35.5 209z M360 730q0 -72 18 -133t56.5 -105.5t98 -69.5t143.5 -25h26v655h-19q-165 0 -244 -85t-79 -237zM980 397h26q84 0 143.5 25t98 69.5t56.5 105.5t18 133q0 152 -79 237t-244 85h-19v-655z" />
<glyph unicode="&#x3a7;" horiz-adv-x="1366" d="M18 0l488 741l-447 668h312l313 -498l313 498h310l-428 -668l469 -741h-310l-354 561l-354 -561h-312z" />
<glyph unicode="&#x3a8;" horiz-adv-x="1657" d="M96 946v463h279v-467q0 -80 17.5 -136t54.5 -91t94.5 -51t138.5 -16h9v761h279v-761h9q81 0 138.5 16t94.5 51t54.5 91t17.5 136v467h279v-463q0 -127 -32.5 -224t-100 -162.5t-172 -99t-248.5 -33.5h-40v-427h-279v427h-40q-144 0 -248.5 33.5t-172 99t-100 162.5 t-32.5 224z" />
<glyph unicode="&#x3a9;" horiz-adv-x="1642" d="M83 0v228h274q26 0 57 -1.5t58 -3.5q32 -3 62 -6q-112 51 -192.5 115t-131.5 140.5t-75 165.5t-24 191q0 141 49 252.5t141 189t223.5 118.5t296.5 41t296.5 -41t223.5 -119t141 -189.5t49 -252.5q0 -102 -24 -190.5t-76 -165t-132.5 -140.5t-193.5 -115q31 3 63 6 q27 2 58 3.5t57 1.5h276v-228h-671v309q181 86 262 201.5t81 263.5q0 101 -27.5 180t-80 133t-129.5 82.5t-175 28.5q-99 0 -175.5 -28.5t-129.5 -82.5t-80.5 -133t-27.5 -180q0 -148 81.5 -263.5t262.5 -201.5v-309h-667z" />
<glyph unicode="&#x3aa;" horiz-adv-x="569" d="M-41 1530v219h194v-219h-194zM137 0v1409h295v-1409h-295zM413 1530v219h197v-219h-197z" />
<glyph unicode="&#x3ab;" horiz-adv-x="1366" d="M35 1409h309l338 -596l342 596h309l-502 -831v-578h-294v578zM353 1530v219h194v-219h-194zM807 1530v219h197v-219h-197z" />
<glyph unicode="&#x3ac;" horiz-adv-x="1259" d="M80 536q0 284 113.5 425t333.5 141q73 0 131.5 -19.5t104 -54t78.5 -81t54 -100.5h3q11 55 31 118.5t44 116.5h265q-26 -47 -53 -113.5t-51 -138.5t-41.5 -144t-23.5 -130q8 -77 21 -152.5t31 -146t39 -135.5t45 -122h-270q-13 32 -24.5 65t-20.5 64.5t-15.5 59 t-10.5 48.5h-4q-26 -56 -58.5 -103t-75 -81.5t-98 -53.5t-127.5 -19q-212 0 -316.5 137.5t-104.5 418.5zM375 539q0 -97 10 -166t32 -113.5t56.5 -65.5t82.5 -21q39 0 77 22.5t69.5 68.5t55 115.5t33.5 162.5q-9 74 -26.5 140.5t-45 116.5t-66 79.5t-89.5 29.5 q-48 0 -84 -20t-59 -64t-34.5 -114t-11.5 -171zM519 1183v33l69 292h257v-37l-221 -288h-105z" />
<glyph unicode="&#x3ad;" horiz-adv-x="924" d="M77 297q0 57 21 103.5t59.5 79.5t91.5 53t116 25v2q-61 6 -108.5 27t-80 54t-49.5 76.5t-17 94.5q0 63 28 116t82 91.5t132.5 60.5t180.5 22q70 0 127 -9.5t104 -29.5t86 -52.5t73 -77.5l-162 -123q-42 57 -92.5 85t-119.5 28q-84 0 -128 -32.5t-44 -89.5 q0 -48 25.5 -77.5t69.5 -45.5t104 -21t129 -5v-177q-66 0 -127.5 -3.5t-108.5 -19t-75 -48t-28 -90.5q0 -72 42.5 -109t117.5 -37t143.5 38.5t126.5 98.5l143 -140q-33 -34 -71.5 -67t-90 -59t-120 -42.5t-160.5 -16.5q-107 0 -186 23.5t-131 65.5t-77.5 100t-25.5 128z M423 1183v33l69 292h257v-37l-221 -288h-105z" />
<glyph unicode="&#x3ae;" horiz-adv-x="1251" d="M107 1082h269q9 -21 16 -45t12 -48.5t7.5 -48t2.5 -43.5h3q27 47 59 85t74 64.5t96 41t126 14.5q93 0 159.5 -22t109 -68t63 -118t20.5 -173v-1145h-279v1053q0 75 -9.5 125.5t-31.5 81t-57.5 43.5t-87.5 13q-53 0 -96.5 -20.5t-74 -60.5t-47 -97.5t-16.5 -132.5v-581 h-282v851q0 68 -11 128.5t-25 102.5zM568 1183v33l69 292h257v-37l-221 -288h-105z" />
<glyph unicode="&#x3af;" horiz-adv-x="569" d="M137 236v846h282v-855q0 -32 6 -64t16.5 -62t25 -55.5t32.5 -45.5h-300q-15 16 -27 42.5t-19.5 58.5t-11.5 67t-4 68zM176 1183v33l69 292h257v-37l-221 -288h-105z" />
<glyph unicode="&#x3b0;" horiz-adv-x="1192" d="M127 433v649h281v-622q0 -136 47.5 -204.5t155.5 -68.5q59 0 100 23t67 73.5t37.5 129.5t11.5 190q0 63 -11.5 132t-29.5 133.5t-40 120.5t-43 93h286q20 -40 41 -96.5t38.5 -123.5t28.5 -141.5t11 -149.5q0 -136 -29.5 -245.5t-92 -186.5t-159.5 -118t-233 -41 q-240 0 -353.5 110.5t-113.5 342.5zM238 1231v222h200v-222h-200zM489 1190v33l59 398h237v-37l-181 -394h-115zM770 1231v222h200v-222h-200z" />
<glyph unicode="&#x3b1;" horiz-adv-x="1259" d="M80 536q0 284 113.5 425t333.5 141q73 0 131.5 -19.5t104 -54t78.5 -81t54 -100.5h3q11 55 31 118.5t44 116.5h265q-26 -47 -53 -113.5t-51 -138.5t-41.5 -144t-23.5 -130q8 -77 21 -152.5t31 -146t39 -135.5t45 -122h-270q-13 32 -24.5 65t-20.5 64.5t-15.5 59 t-10.5 48.5h-4q-26 -56 -58.5 -103t-75 -81.5t-98 -53.5t-127.5 -19q-212 0 -316.5 137.5t-104.5 418.5zM375 539q0 -97 10 -166t32 -113.5t56.5 -65.5t82.5 -21q39 0 77 22.5t69.5 68.5t55 115.5t33.5 162.5q-9 74 -26.5 140.5t-45 116.5t-66 79.5t-89.5 29.5 q-48 0 -84 -20t-59 -64t-34.5 -114t-11.5 -171z" />
<glyph unicode="&#x3b2;" horiz-adv-x="1250" d="M142 -425v1452q0 237 124.5 347t371.5 110q108 0 191 -23.5t139.5 -68.5t85 -110t28.5 -147q0 -73 -17.5 -128.5t-48 -96.5t-71 -69t-86.5 -46q57 -11 114.5 -38.5t103.5 -74t75 -115t29 -162.5q0 -88 -26 -165.5t-81.5 -135.5t-141 -91t-204.5 -33q-101 0 -174.5 27.5 t-128.5 66.5h-9q5 -57 6.5 -103t1.5 -99v-297h-282zM424 255q22 -17 50.5 -32t61 -26.5t67.5 -18t69 -6.5q58 0 102 17.5t73.5 50t44.5 78t15 101.5t-18 103t-58 81t-103 53.5t-152 19.5v198q127 22 183.5 79t56.5 156q0 36 -10.5 67.5t-32.5 55t-55.5 36.5t-80.5 13 q-54 0 -94 -15.5t-66.5 -50t-39.5 -90t-13 -134.5v-736z" />
<glyph unicode="&#x3b3;" d="M8 1082h298l212 -640q3 -9 11.5 -40t17.5 -69.5t16.5 -78t8.5 -66.5q4 31 12 67.5t17 72t18 67t16 52.5l201 635h295l-395 -1028q-21 -55 -39.5 -110t-34 -113.5t-28 -121.5t-21.5 -133h-290q20 134 46.5 240.5t54.5 194.5z" />
<glyph unicode="&#x3b4;" horiz-adv-x="1242" d="M86 481q0 110 36.5 196t100 152t148 113.5t180.5 80.5l-312 314v147h853v-190h-358q-13 0 -32.5 1t-41 2t-41 2t-32.5 2l323 -293q58 -53 104 -110t77.5 -121t48 -137t16.5 -157q0 -108 -35.5 -200.5t-104.5 -159.5t-169.5 -105t-229.5 -38q-127 0 -226 34.5t-166.5 99 t-103 157.5t-35.5 210zM376 481q0 -66 14 -122t43 -96.5t73.5 -63.5t105.5 -23q70 0 118.5 23.5t78.5 64.5t43.5 98.5t13.5 124.5q0 69 -16 127.5t-43.5 109.5t-63.5 95t-76 84q-67 -24 -120.5 -62t-91.5 -90.5t-58.5 -119.5t-20.5 -150z" />
<glyph unicode="&#x3b5;" horiz-adv-x="972" d="M77 297q0 57 21 103.5t59.5 79.5t91.5 53t116 25v2q-61 6 -108.5 27t-80 54t-49.5 76.5t-17 94.5q0 63 28 116t82 91.5t132.5 60.5t180.5 22q70 0 127 -9.5t104 -29.5t86 -52.5t73 -77.5l-162 -123q-42 57 -92.5 85t-119.5 28q-84 0 -128 -32.5t-44 -89.5 q0 -48 25.5 -77.5t69.5 -45.5t104 -21t129 -5v-177q-66 0 -127.5 -3.5t-108.5 -19t-75 -48t-28 -90.5q0 -72 42.5 -109t117.5 -37t143.5 38.5t126.5 98.5l143 -140q-33 -34 -71.5 -67t-90 -59t-120 -42.5t-160.5 -16.5q-107 0 -186 23.5t-131 65.5t-77.5 100t-25.5 128z" />
<glyph unicode="&#x3b6;" horiz-adv-x="943" d="M66 339q0 80 23 163.5t63 168t93.5 168t115 163.5t127 154t129.5 139v4q-12 -1 -29 -1.5t-35 -1t-35 -1t-28 -0.5h-315v189h701v-190q-62 -61 -127.5 -131t-127 -144.5t-115.5 -152t-94.5 -153.5t-64 -150t-23.5 -141q0 -56 20 -90.5t55.5 -56t84 -36t104.5 -30.5 q54 -15 111.5 -34t104.5 -52.5t77 -87t30 -137.5q0 -42 -10 -85.5t-24.5 -84t-30.5 -74.5t-29 -55l-183 74q9 15 18.5 33.5t17.5 38.5t13.5 41t5.5 42q0 37 -17.5 62.5t-50 43.5t-78.5 31.5t-104 28.5q-64 14 -130.5 33.5t-120.5 56.5t-88 98t-34 157z" />
<glyph unicode="&#x3b7;" horiz-adv-x="1251" d="M107 1082h269q9 -21 16 -45t12 -48.5t7.5 -48t2.5 -43.5h3q27 47 59 85t74 64.5t96 41t126 14.5q93 0 159.5 -22t109 -68t63 -118t20.5 -173v-1145h-279v1053q0 75 -9.5 125.5t-31.5 81t-57.5 43.5t-87.5 13q-53 0 -96.5 -20.5t-74 -60.5t-47 -97.5t-16.5 -132.5v-581 h-282v851q0 68 -11 128.5t-25 102.5z" />
<glyph unicode="&#x3b8;" horiz-adv-x="1107" d="M90 733q0 374 116.5 562t348.5 188q121 0 208.5 -46.5t143.5 -140.5t83 -234.5t27 -328.5q0 -381 -120 -567t-348 -186q-108 0 -193.5 46t-144.5 139t-90 234.5t-31 333.5zM365 834h378q-2 134 -17.5 223.5t-40 143.5t-57.5 76.5t-71 22.5q-39 0 -73 -22.5t-59.5 -76.5 t-41.5 -143.5t-18 -223.5zM366 644q2 -138 18 -230.5t41.5 -148.5t58 -79.5t66.5 -23.5q39 0 73 23.5t60 79t42 148.5t18 231h-377z" />
<glyph unicode="&#x3b9;" horiz-adv-x="569" d="M137 236v846h282v-855q0 -32 6 -64t16.5 -62t25 -55.5t32.5 -45.5h-300q-15 16 -27 42.5t-19.5 58.5t-11.5 67t-4 68z" />
<glyph unicode="&#x3ba;" horiz-adv-x="1142" d="M143 0v1082h281v-494l397 494h291l-380 -462l409 -620h-299l-291 455l-127 -106v-349h-281z" />
<glyph unicode="&#x3bb;" d="M9 0l474 1006l-26 73q-27 69 -49 117t-43.5 78.5t-45.5 44t-56 13.5q-20 0 -47 -5.5t-46 -13.5l-48 194q31 11 80.5 20.5t106.5 9.5q81 0 139 -21.5t102.5 -67.5t80 -117t69.5 -169l408 -1162h-294l-136 462q-4 13 -10.5 35.5t-14.5 51t-17 59.5t-16 60t-12.5 53t-7.5 38 q-7 -27 -20.5 -70.5t-29.5 -91t-32.5 -93t-29.5 -75.5l-182 -429h-297z" />
<glyph unicode="&#x3bc;" horiz-adv-x="1253" d="M144 -416v1498h281v-605q0 -64 9.5 -116t31 -89.5t56.5 -58t87 -20.5q50 0 90 22.5t69 63t44.5 98t15.5 127.5v578h281v-840q0 -34 0.5 -70.5t2 -70t3 -60.5t2.5 -41h-268q-1 12 -3.5 34t-4.5 48.5t-3.5 53.5t-1.5 48h-3q-38 -99 -99 -151.5t-147 -52.5q-52 0 -95.5 24 t-66.5 66h-4q3 -32 3.5 -59.5t0.5 -55.5v-371h-281z" />
<glyph unicode="&#x3bd;" d="M0 1082h297l261 -843q56 80 95.5 154t64.5 146.5t36.5 146t11.5 151.5q0 81 -14.5 140.5t-34.5 104.5h280q23 -45 36.5 -101.5t13.5 -134.5q0 -99 -31.5 -208t-85.5 -219.5t-124.5 -217.5t-148.5 -201h-267z" />
<glyph unicode="&#x3be;" horiz-adv-x="912" d="M66 339q0 76 26 152t81.5 140.5t143.5 112t212 66.5v2q-67 5 -126.5 22t-103 47t-69 73t-25.5 98q0 57 25 98t64.5 70t88 46.5t95.5 26.5v8q-12 -1 -46 -2t-74 -2.5t-78 -2.5t-56 -1h-76v191h654v-185q-69 -7 -134 -21t-115.5 -38t-81 -61t-30.5 -91q0 -51 26.5 -83.5 t71 -52.5t102 -30t118.5 -15v-191q-100 -12 -180.5 -30t-137 -50.5t-87 -84t-30.5 -131.5q0 -53 20 -87t55.5 -56.5t84 -37.5t104.5 -30q54 -15 111.5 -34t104.5 -52.5t77 -87t30 -137.5q0 -42 -10 -85.5t-24.5 -84t-30.5 -74.5t-29 -55l-183 74q9 15 18.5 33.5t17.5 38.5 t13.5 41t5.5 42q0 37 -17.5 62.5t-50 43.5t-78.5 31.5t-104 28.5q-64 14 -130.5 33.5t-120.5 56.5t-88 98t-34 157z" />
<glyph unicode="&#x3bf;" horiz-adv-x="1251" d="M80 542q0 121 33.5 223.5t101.5 177.5t171 117t241 42q146 0 249 -42t168.5 -116.5t96 -177t30.5 -224.5q0 -124 -34.5 -227t-103.5 -177.5t-172 -116t-240 -41.5q-132 0 -233 41t-169.5 115t-103.5 177.5t-35 228.5zM375 542q0 -97 17.5 -167t49.5 -115t77 -66.5 t99 -21.5q62 0 110.5 21.5t81.5 66.5t50 115t17 167q0 193 -63 280t-183 87q-124 0 -190 -88t-66 -279z" />
<glyph unicode="&#x3c0;" horiz-adv-x="1568" d="M42 855v198q15 7 37 12.5t46.5 9t50 5.5t48.5 2h1289v-190h-273v-589q0 -72 28 -99.5t76 -27.5q26 0 52 4t46 8l20 -184q-44 -10 -101.5 -17t-121.5 -7q-141 0 -209.5 74.5t-68.5 210.5v627h-363v-124q0 -130 -6.5 -239t-18.5 -202t-28 -173t-35 -154h-287 q19 76 37 157.5t32.5 173.5t23 198t8.5 231v132q-97 0 -171.5 -8.5t-110.5 -28.5z" />
<glyph unicode="&#x3c1;" horiz-adv-x="1267" d="M121 -425v1006q0 119 34.5 215.5t100.5 164.5t161.5 105t216.5 37q114 0 214.5 -39.5t175.5 -114.5t119 -184t44 -249q0 -118 -32 -216.5t-91.5 -169.5t-144.5 -110.5t-192 -39.5q-55 0 -100.5 10.5t-84 29t-69.5 43.5t-57 54h-4q2 -30 3 -57.5t1 -59.5v-425h-295z M416 300q52 -57 118 -91.5t143 -34.5q53 0 93.5 25t67.5 70.5t41 110.5t14 146q0 90 -18.5 161t-52.5 120.5t-81.5 75.5t-104.5 26q-59 0 -100.5 -23t-68 -66.5t-39 -106t-12.5 -141.5v-272z" />
<glyph unicode="&#x3c2;" horiz-adv-x="1065" d="M79 428q0 59 11 131.5t36 147.5t66 146.5t101.5 127t141.5 89t186 33.5q115 0 203.5 -37.5t147.5 -103.5l-139 -149q-18 19 -39 37t-46 32t-54 22.5t-63 8.5q-55 0 -97.5 -24t-75 -62.5t-55 -88.5t-36.5 -102t-20.5 -102t-6.5 -89q0 -58 22 -95t60.5 -62.5t91.5 -44 t115 -39.5q40 -12 81.5 -24t81 -28t74.5 -37.5t61 -53.5t41.5 -76t15.5 -105q0 -39 -11 -80t-27.5 -79t-35 -70t-32.5 -52l-178 74q9 15 18.5 33t17.5 38t13.5 41t5.5 42q0 37 -21 62t-59 43t-89.5 31.5t-113.5 28.5q-45 12 -91.5 26t-90.5 35.5t-82 52t-67 75t-45.5 105.5 t-16.5 142z" />
<glyph unicode="&#x3c3;" horiz-adv-x="1401" d="M80 524q0 144 47.5 249t132 174t202 102t257.5 33h642v-190h-195q-10 0 -29.5 0.5t-43 1.5t-48 2t-43.5 2v-4q31 -40 61 -87t54 -101t38.5 -116t14.5 -132q0 -105 -34 -193t-101.5 -151t-169 -98.5t-237.5 -35.5t-238.5 37t-171.5 106.5t-103.5 170.5t-34.5 230zM375 524 q0 -177 62.5 -264.5t183.5 -87.5q65 0 112.5 22t79.5 63.5t47.5 100.5t15.5 134q0 63 -8.5 120t-22.5 107.5t-32.5 93.5t-38.5 79h-74q-68 0 -127 -22.5t-103 -68t-69.5 -114.5t-25.5 -163z" />
<glyph unicode="&#x3c4;" horiz-adv-x="914" d="M18 855v198q12 6 33.5 11.5t47 9.5t52.5 6t50 2h679v-190h-305v-580q0 -40 8 -66t22.5 -41.5t36 -21.5t48.5 -6q17 0 41 2.5t40 5.5l24 -178q-17 -5 -42 -10t-52.5 -9t-55 -6.5t-49.5 -2.5q-155 0 -227 70t-72 202v641h-27q-39 0 -78.5 -3t-74 -8.5t-61 -12t-38.5 -13.5z " />
<glyph unicode="&#x3c5;" horiz-adv-x="1192" d="M127 433v649h281v-622q0 -136 47.5 -204.5t155.5 -68.5q59 0 100 23t67 73.5t37.5 129.5t11.5 190q0 63 -11.5 132t-29.5 133.5t-40 120.5t-43 93h286q20 -40 41 -96.5t38.5 -123.5t28.5 -141.5t11 -149.5q0 -136 -29.5 -245.5t-92 -186.5t-159.5 -118t-233 -41 q-240 0 -353.5 110.5t-113.5 342.5z" />
<glyph unicode="&#x3c6;" horiz-adv-x="1465" d="M80 544q0 133 30 231t87 165.5t140.5 107.5t191.5 58l21 -179q-51 -13 -88 -48t-61 -86.5t-35 -115t-11 -133.5q0 -93 17.5 -162t50 -115.5t79.5 -71t105 -28.5v535q0 198 87 300t273 102q95 0 172.5 -38t132.5 -108.5t84.5 -170t29.5 -222.5q0 -151 -40.5 -258.5 t-113 -177.5t-171.5 -105.5t-216 -41.5v-407h-238v405q-121 5 -218.5 41t-166 105t-105.5 173t-37 245zM845 166q128 6 197 106t69 295q0 191 -37.5 277t-105.5 86q-57 0 -90 -54.5t-33 -176.5v-533z" />
<glyph unicode="&#x3c7;" horiz-adv-x="1179" d="M13 -424l452 829l-119 243q-37 76 -64.5 125t-50.5 77t-44.5 38.5t-48.5 10.5q-41 0 -81 -16l-40 191q31 11 85.5 20.5t130.5 9.5q60 0 105 -21t84.5 -68t78 -122t85.5 -183l20 -46q2 -5 6.5 -19.5t7.5 -26.5q5 14 13 33.5t16.5 39.5t16.5 38t13 28l155 325h297 l-375 -690l413 -816h-300l-195 432q-7 15 -17.5 40t-21 52.5t-19.5 53.5t-14 44q-5 -17 -15 -43t-21 -52.5t-21.5 -51t-17.5 -38.5l-214 -437h-300z" />
<glyph unicode="&#x3c8;" horiz-adv-x="1543" d="M129 458v624h275v-607q0 -85 14.5 -141.5t44 -91t75 -49t106.5 -16.5v1163h257v-1164q66 1 111.5 15.5t74 49t41 91.5t12.5 142v608h275v-624q0 -122 -27.5 -211.5t-89 -148t-158.5 -88t-237 -30.5v-405h-259v405q-136 1 -233.5 30.5t-160 88t-92 148t-29.5 211.5z" />
<glyph unicode="&#x3c9;" horiz-adv-x="1730" d="M81 517q0 127 35.5 227.5t102 174t162.5 120t216 64.5l23 -187q-68 -13 -116 -50t-79 -89.5t-45 -118t-14 -137.5q0 -78 9 -141.5t31 -108.5t58 -69.5t90 -24.5q86 0 134.5 78t48.5 219v187h258v-187q0 -142 47 -220t132 -78q54 0 90.5 24t58.5 69t31 108.5t9 141.5 q0 72 -14.5 137.5t-45 118.5t-78.5 89.5t-116 49.5l23 189q121 -18 217 -64.5t162.5 -120t102 -174t35.5 -227.5q0 -128 -29 -228t-84.5 -168.5t-136.5 -104.5t-185 -36q-74 0 -131 16t-99 46t-71 74.5t-46 101.5h-4q-17 -57 -46 -101.5t-71 -74.5t-99 -46t-131 -16 q-104 0 -185 36t-136.5 104.5t-84.5 168.5t-29 228z" />
<glyph unicode="&#x3ca;" horiz-adv-x="569" d="M-39 1199v219h214v-219h-214zM137 236v846h282v-855q0 -32 6 -64t16.5 -62t25 -55.5t32.5 -45.5h-300q-15 16 -27 42.5t-19.5 58.5t-11.5 67t-4 68zM395 1199v219h217v-219h-217z" />
<glyph unicode="&#x3cb;" horiz-adv-x="1192" d="M127 433v649h281v-622q0 -136 47.5 -204.5t155.5 -68.5q59 0 100 23t67 73.5t37.5 129.5t11.5 190q0 63 -11.5 132t-29.5 133.5t-40 120.5t-43 93h286q20 -40 41 -96.5t38.5 -123.5t28.5 -141.5t11 -149.5q0 -136 -29.5 -245.5t-92 -186.5t-159.5 -118t-233 -41 q-240 0 -353.5 110.5t-113.5 342.5zM258 1199v219h214v-219h-214zM692 1199v219h217v-219h-217z" />
<glyph unicode="&#x3cc;" horiz-adv-x="1251" d="M80 542q0 121 33.5 223.5t101.5 177.5t171 117t241 42q146 0 249 -42t168.5 -116.5t96 -177t30.5 -224.5q0 -124 -34.5 -227t-103.5 -177.5t-172 -116t-240 -41.5q-132 0 -233 41t-169.5 115t-103.5 177.5t-35 228.5zM375 542q0 -97 17.5 -167t49.5 -115t77 -66.5 t99 -21.5q62 0 110.5 21.5t81.5 66.5t50 115t17 167q0 193 -63 280t-183 87q-124 0 -190 -88t-66 -279zM527 1183v33l69 292h257v-37l-221 -288h-105z" />
<glyph unicode="&#x3cd;" horiz-adv-x="1192" d="M127 433v649h281v-622q0 -136 47.5 -204.5t155.5 -68.5q59 0 100 23t67 73.5t37.5 129.5t11.5 190q0 63 -11.5 132t-29.5 133.5t-40 120.5t-43 93h286q20 -40 41 -96.5t38.5 -123.5t28.5 -141.5t11 -149.5q0 -136 -29.5 -245.5t-92 -186.5t-159.5 -118t-233 -41 q-240 0 -353.5 110.5t-113.5 342.5zM465 1183v33l69 292h257v-37l-221 -288h-105z" />
<glyph unicode="&#x3ce;" horiz-adv-x="1730" d="M81 517q0 127 35.5 227.5t102 174t162.5 120t216 64.5l23 -187q-68 -13 -116 -50t-79 -89.5t-45 -118t-14 -137.5q0 -78 9 -141.5t31 -108.5t58 -69.5t90 -24.5q86 0 134.5 78t48.5 219v187h258v-187q0 -142 47 -220t132 -78q54 0 90.5 24t58.5 69t31 108.5t9 141.5 q0 72 -14.5 137.5t-45 118.5t-78.5 89.5t-116 49.5l23 189q121 -18 217 -64.5t162.5 -120t102 -174t35.5 -227.5q0 -128 -29 -228t-84.5 -168.5t-136.5 -104.5t-185 -36q-74 0 -131 16t-99 46t-71 74.5t-46 101.5h-4q-17 -57 -46 -101.5t-71 -74.5t-99 -46t-131 -16 q-104 0 -185 36t-136.5 104.5t-84.5 168.5t-29 228zM788 1183v33l69 292h257v-37l-221 -288h-105z" />
<glyph unicode="&#x401;" horiz-adv-x="1370" d="M137 0v1409h1108v-228h-813v-354h752v-228h-752v-371h854v-228h-1149zM392 1530v219h194v-219h-194zM846 1530v219h197v-219h-197z" />
<glyph unicode="&#x402;" horiz-adv-x="1813" d="M23 1181v228h1206v-228h-456v-336q36 15 87.5 33t114.5 33.5t134.5 26t146.5 10.5q117 0 202.5 -27t141 -82t82 -139.5t26.5 -199.5v-54q0 -108 -21 -194t-72 -146.5t-135.5 -93t-212.5 -32.5q-74 0 -133 11.5t-106.5 34t-85.5 56t-70 76.5l202 171q17 -22 35.5 -43 t40.5 -37.5t48 -26.5t57 -10q54 0 87.5 16.5t51.5 48t24 78t6 106.5v9q0 67 -12 115.5t-42 80t-80.5 46.5t-128.5 15q-54 0 -109 -6t-106 -16t-95.5 -21.5t-77.5 -22.5v-661h-295v1181h-455z" />
<glyph unicode="&#x403;" horiz-adv-x="1161" d="M137 1v1408h984v-228h-689v-1180h-295zM456 1530v31l252 254h258v-43l-340 -242h-170z" />
<glyph unicode="&#x404;" horiz-adv-x="1457" d="M84 711q0 165 41.5 298t126.5 226.5t214.5 144t304.5 50.5q136 0 238 -29t176.5 -81.5t123 -124t76.5 -157.5l-255 -71q-14 45 -42.5 86.5t-72 73.5t-102 51.5t-133.5 19.5q-91 0 -162 -25t-120.5 -72.5t-77.5 -116t-33 -155.5h546v-228h-547q6 -89 34 -161t78 -122.5 t122.5 -78t166.5 -27.5q81 0 141 23.5t103 61.5t72 86t48 97l252 -97q-31 -76 -80 -149t-123 -129t-176 -90.5t-240 -34.5q-180 0 -312 54.5t-218 152t-128 231.5t-42 293z" />
<glyph unicode="&#x405;" horiz-adv-x="1366" d="M59 367l285 47q12 -47 35 -86t63.5 -67.5t101 -44t146.5 -15.5q150 0 229.5 45.5t79.5 142.5q0 58 -32 95t-85 61t-122 40t-144 31q-60 14 -120 29t-114.5 36t-101.5 50t-81.5 71.5t-54 99.5t-19.5 134q0 105 42 180t116.5 122.5t177.5 69.5t225 22q138 0 236.5 -21.5 t165 -65.5t105 -110.5t56.5 -155.5l-286 -39q-22 91 -89.5 137t-193.5 46q-78 0 -129.5 -13.5t-82 -36.5t-43.5 -53.5t-13 -64.5q0 -52 25 -85.5t70 -56t107.5 -38t137.5 -31.5q66 -14 131 -29.5t124 -36.5t110 -51t88.5 -73.5t59 -103.5t21.5 -142q0 -96 -35 -174.5 t-108.5 -134.5t-188 -86.5t-272.5 -30.5q-140 0 -247 25t-183.5 74t-124 121.5t-68.5 166.5z" />
<glyph unicode="&#x406;" horiz-adv-x="569" d="M137 0v1409h295v-1409h-295z" />
<glyph unicode="&#x407;" horiz-adv-x="565" d="M-43 1530v219h194v-219h-194zM137 0v1409h295v-1409h-295zM411 1530v219h197v-219h-197z" />
<glyph unicode="&#x408;" d="M31 382l293 43q10 -59 28 -99.5t43.5 -66t58.5 -37t72 -11.5q88 0 133.5 59t45.5 169v739h-281v231h575v-963q0 -107 -31 -193.5t-91.5 -147t-149 -93t-203.5 -32.5q-106 0 -189 22t-144 70t-100.5 124.5t-59.5 185.5z" />
<glyph unicode="&#x409;" horiz-adv-x="2240" d="M8 1v247q8 -4 21.5 -5.5t21.5 -1.5q23 0 43 10.5t38.5 38.5t36.5 77t35.5 126.5t36.5 186.5t40 256l67 473h903v-561h428q123 0 215 -30t152.5 -84.5t91 -131.5t30.5 -171q0 -90 -32.5 -169t-98 -137t-163 -91.5t-227.5 -33.5h-691v1165h-347l-49 -348 q-23 -161 -45.5 -285.5t-49 -217t-59 -155.5t-75 -102t-97.5 -56t-127 -17q-27 0 -56 4.5t-43 12.5zM1251 230h348q140 0 205.5 50.5t65.5 146.5q0 93 -69.5 143.5t-207.5 50.5h-342v-391z" />
<glyph unicode="&#x40a;" horiz-adv-x="2176" d="M137 0v1409h295v-561h547v561h295v-561h339q123 0 215 -30t152.5 -84.5t91 -131.5t30.5 -171q0 -90 -32.5 -169t-98 -137t-163 -91.5t-227.5 -33.5h-602v604h-547v-604h-295zM1274 230h259q140 0 205.5 50.5t65.5 146.5q0 93 -69.5 143.5t-207.5 50.5h-253v-391z" />
<glyph unicode="&#x40b;" horiz-adv-x="1792" d="M23 1181v228h1206v-228h-456v-319q37 14 82.5 29t97.5 27t111 19.5t123 7.5q235 0 353.5 -113t118.5 -352v-480h-284v449q0 72 -15 124.5t-49 86t-87.5 50t-131.5 16.5q-88 0 -170.5 -16t-148.5 -37v-673h-295v1181h-455z" />
<glyph unicode="&#x40c;" horiz-adv-x="1250" d="M137 0v1409h295v-599q27 0 53 14t57 46t69 84.5t87 130.5l206 324h300l-265 -405q-23 -35 -48 -71t-48 -67t-43 -54t-32 -32l485 -780h-321l-374 640q-11 -7 -26.5 -13t-33 -11t-35 -8t-32.5 -3v-605h-294zM515 1530v31l252 254h258v-43l-340 -242h-170z" />
<glyph unicode="&#x40e;" horiz-adv-x="1274" d="M-7 1409h307l388 -680l298 680h299l-525 -1091q-40 -83 -79.5 -146t-88 -106t-111 -64.5t-148.5 -21.5q-31 0 -66.5 4t-69 12t-64 19t-53.5 25l82 246q38 -18 77 -30t83 -12q35 0 62.5 10t52 33t47.5 60.5t48 92.5l17 37zM220 1854h224q5 -103 52 -151t131 -48t131 48 t52 151h224q-2 -43 -10 -85t-25.5 -79.5t-47 -70t-74 -56t-106.5 -36.5t-144 -13t-144 13t-106.5 36.5t-74 56t-47 70t-25.5 79.5t-10 85z" />
<glyph unicode="&#x40f;" horiz-adv-x="1472" d="M137 0v1409h295v-1165h617v1165h285v-1409h-473v-408h-250v408h-474z" />
<glyph unicode="&#x410;" horiz-adv-x="1479" d="M51 0l514 1409h348l512 -1409h-292l-125 360h-537l-125 -360h-295zM537 582h405l-139 405q-12 35 -23.5 70.5t-20 65t-14 48.5t-6.5 21q-1 -3 -6 -22t-13.5 -48t-20 -64.5t-23.5 -70.5z" />
<glyph unicode="&#x411;" horiz-adv-x="1472" d="M137 0v1409h1061v-227h-766v-334h478q123 0 215 -30t152.5 -84.5t91 -131.5t30.5 -171q0 -90 -32.5 -169t-98 -137t-163 -91.5t-227.5 -33.5h-741zM432 230h398q140 0 205.5 50.5t65.5 146.5q0 93 -69.5 143.5t-207.5 50.5h-392v-391z" />
<glyph unicode="&#x412;" horiz-adv-x="1479" d="M137 0v1409h645q125 0 222.5 -21.5t164.5 -65.5t101.5 -110.5t34.5 -156.5q0 -120 -66.5 -202.5t-202.5 -111.5q171 -20 260.5 -107.5t89.5 -231.5q0 -107 -43 -183.5t-117.5 -125t-173.5 -71t-210 -22.5h-705zM432 219h385q58 0 108 9.5t86.5 33t57.5 63.5t21 100 q0 56 -22 94t-60.5 61t-90 33t-111.5 10h-374v-404zM432 841h338q125 0 181.5 43.5t56.5 130.5q0 95 -60.5 135t-179.5 40h-336v-349z" />
<glyph unicode="&#x413;" horiz-adv-x="1161" d="M137 1v1408h984v-228h-689v-1180h-295z" />
<glyph unicode="&#x414;" horiz-adv-x="1459" d="M18 244h156q34 62 66 142t59.5 173t50 195.5t37.5 209.5l61 445h789v-1165h185v-652h-250v408h-904v-408h-250v652zM483 244h469v921h-262l-31 -234q-12 -85 -30 -180.5t-40.5 -187.5t-49.5 -175t-56 -144z" />
<glyph unicode="&#x415;" horiz-adv-x="1366" d="M137 0v1409h1108v-228h-813v-354h752v-228h-752v-371h854v-228h-1149z" />
<glyph unicode="&#x416;" horiz-adv-x="1851" d="M-6 0l455 780q-12 9 -30.5 31.5t-40 53t-44.5 66t-45 71.5l-251 407h300l198 -324q48 -78 83 -131t63 -85t52 -45.5t51 -13.5v599h284v-599q27 0 51 13.5t52.5 45.5t63.5 85t83 131l198 324h300l-251 -407q-22 -36 -45 -71.5t-44.5 -66t-40 -53t-30.5 -31.5l455 -780 h-316l-349 640q-26 -13 -61.5 -20.5t-65.5 -7.5v-612h-283v612q-15 0 -32.5 2t-34.5 5.5t-33 8.5t-27 12l-349 -640h-316z" />
<glyph unicode="&#x417;" horiz-adv-x="1283" d="M46 368l264 93q20 -55 49 -101t68.5 -80t91.5 -53t119 -19q129 0 196 53.5t67 150.5q0 101 -79.5 145.5t-248.5 44.5h-59v227h59q151 0 223 48t72 148q0 91 -61.5 139t-169.5 48q-63 0 -110 -20t-81.5 -54t-58 -79t-38.5 -94l-268 61q31 92 78 166t115 127t159 81.5 t209 28.5q116 0 210 -26t161 -73.5t103.5 -115.5t36.5 -152q0 -69 -20 -124.5t-56.5 -97t-88.5 -70t-115 -44.5q67 -10 124.5 -34.5t100 -65t67 -97t24.5 -129.5q0 -93 -37 -170t-107.5 -132.5t-173 -86.5t-233.5 -31q-126 0 -222.5 26t-167.5 75.5t-120.5 121.5t-81.5 165z " />
<glyph unicode="&#x418;" horiz-adv-x="1472" d="M136 0v1409h262v-819q0 -50 -1 -99t-3 -88q-2 -46 -4 -88l613 1094h332v-1409h-262v831q0 40 1 84t3 82l4 88l-609 -1085h-336z" />
<glyph unicode="&#x419;" horiz-adv-x="1472" d="M136 0v1409h262v-819q0 -50 -1 -99t-3 -88q-2 -46 -4 -88l613 1094h332v-1409h-262v831q0 40 1 84t3 82l4 88l-609 -1085h-336zM335 1854h224q5 -103 52 -151t131 -48t131 48t52 151h224q-2 -43 -10 -85t-25.5 -79.5t-47 -70t-74 -56t-106.5 -36.5t-144 -13t-144 13 t-106.5 36.5t-74 56t-47 70t-25.5 79.5t-10 85z" />
<glyph unicode="&#x41a;" horiz-adv-x="1250" d="M137 0v1409h295v-599q27 0 53 14t57 46t69 84.5t87 130.5l206 324h300l-265 -405q-23 -35 -48 -71t-48 -67t-43 -54t-32 -32l485 -780h-321l-374 640q-11 -7 -26.5 -13t-33 -11t-35 -8t-32.5 -3v-605h-294z" />
<glyph unicode="&#x41b;" horiz-adv-x="1437" d="M8 1v247q8 -4 21.5 -5.5t21.5 -1.5q23 0 43 10.5t38.5 38.5t36.5 77t35.5 126.5t36.5 186.5t40 256l67 473h952v-1409h-284v1165h-407l-49 -348q-23 -161 -45.5 -285.5t-49 -217t-59 -155.5t-75 -102t-97.5 -56t-127 -17q-27 0 -56 4.5t-43 12.5z" />
<glyph unicode="&#x41c;" horiz-adv-x="1706" d="M137 0v1409h395l252 -788q10 -31 21.5 -76t22.5 -87q12 -49 26 -102q14 52 27 100q6 21 12 43t12 43t12 40t11 34l248 793h393v-1409h-262v854q0 51 1.5 105t3.5 99q3 53 5 103q-21 -79 -40 -150q-8 -30 -17 -62t-17.5 -62t-16.5 -56t-14 -45l-254 -786h-210l-254 786 q-6 19 -13.5 45t-16 56t-17.5 62t-18 62q-20 71 -42 150q3 -58 6 -114q2 -48 4 -101t2 -92v-854h-262z" />
<glyph unicode="&#x41d;" horiz-adv-x="1479" d="M137 0v1409h295v-561h614v561h295v-1409h-295v604h-614v-604h-295z" />
<glyph unicode="&#x41e;" horiz-adv-x="1593" d="M84 711q0 165 46.5 298t137 226.5t223 144t304.5 50.5t304.5 -51t223 -145t137.5 -226.5t47 -296.5q0 -165 -49 -300t-141 -231t-224.5 -148t-299.5 -52q-177 0 -309.5 54.5t-221.5 152t-133.5 231.5t-44.5 293zM381 711q0 -110 26.5 -201.5t78.5 -157.5t129 -103 t178 -37q108 0 186 37.5t128.5 104t74.5 158t24 199.5q0 111 -26.5 200.5t-78.5 153.5t-128.5 98.5t-177.5 34.5q-103 0 -180.5 -34.5t-129.5 -98.5t-78 -153.5t-26 -200.5z" />
<glyph unicode="&#x41f;" horiz-adv-x="1472" d="M137 0v1409h1198v-1409h-285v1165h-619v-1165h-294z" />
<glyph unicode="&#x420;" horiz-adv-x="1366" d="M137 0v1409h633q135 0 234 -32.5t164 -91.5t96.5 -141t31.5 -181q0 -91 -30.5 -175.5t-93.5 -149.5t-160 -103.5t-230 -38.5h-350v-496h-295zM432 723h313q66 0 113.5 17t79 48t46.5 74.5t15 95.5q0 109 -65.5 165.5t-196.5 56.5h-305v-457z" />
<glyph unicode="&#x421;" horiz-adv-x="1479" d="M84 711q0 165 42.5 298t128.5 226.5t217.5 144t309.5 50.5q138 0 241.5 -29t179 -81.5t125 -124t77.5 -157.5l-260 -71q-14 45 -43 86.5t-73.5 73.5t-104.5 51.5t-136 19.5q-107 0 -184 -34.5t-126.5 -98.5t-73 -153.5t-23.5 -200.5q0 -110 23.5 -201.5t73.5 -157.5 t128.5 -103t188.5 -37q83 0 143.5 23.5t105 61.5t74 86t48.5 97l257 -97q-31 -76 -81 -149t-125 -129t-178.5 -90.5t-243.5 -34.5q-183 0 -317 54.5t-221.5 152t-130 231.5t-42.5 293z" />
<glyph unicode="&#x422;" horiz-adv-x="1251" d="M23 1181v228h1206v-228h-456v-1181h-295v1181h-455z" />
<glyph unicode="&#x423;" horiz-adv-x="1274" d="M1 1409h307l388 -680l298 680h299l-525 -1091q-40 -83 -79.5 -146t-88 -106t-111 -64.5t-148.5 -21.5q-31 0 -66.5 4t-69 12t-64 19t-53.5 25l82 246q38 -18 77 -30t83 -12q35 0 62.5 10t52 33t47.5 60.5t48 92.5l17 37z" />
<glyph unicode="&#x424;" horiz-adv-x="1748" d="M71 734q0 119 37 216.5t111.5 166.5t186.5 106.5t262 37.5h67v158h278v-158h67q150 0 262 -37.5t186.5 -106.5t111.5 -166.5t37 -216.5q0 -110 -35.5 -209t-108.5 -174t-182.5 -119t-258.5 -44h-79v-199h-278v199h-79q-148 0 -258 44t-183 119t-108.5 174t-35.5 209z M368 730q0 -72 18 -133t56.5 -105.5t98 -69.5t143.5 -25h51v655h-44q-165 0 -244 -85t-79 -237zM1013 397h51q84 0 143.5 25t98 69.5t56.5 105.5t18 133q0 152 -79 237t-244 85h-44v-655z" />
<glyph unicode="&#x425;" horiz-adv-x="1366" d="M18 0l488 741l-447 668h312l313 -498l313 498h310l-428 -668l469 -741h-310l-354 561l-354 -561h-312z" />
<glyph unicode="&#x426;" horiz-adv-x="1496" d="M137 0v1409h295v-1165h569v1165h285v-1165h195v-652h-250v408h-1094z" />
<glyph unicode="&#x427;" horiz-adv-x="1439" d="M110 929v480h284v-449q0 -72 12.5 -124.5t44 -86t85 -50t135.5 -16.5q92 0 178.5 16t156.5 37v673h295v-1409h-295v547q-39 -14 -86.5 -29t-102.5 -27t-117 -19.5t-129 -7.5q-240 0 -350.5 113t-110.5 352z" />
<glyph unicode="&#x428;" horiz-adv-x="2058" d="M137 0v1409h285v-1165h464v1165h285v-1165h465v1165h285v-1409h-1784z" />
<glyph unicode="&#x429;" horiz-adv-x="2087" d="M137 0v1409h285v-1165h443v1165h285v-1165h442v1165h285v-1165h195v-652h-250v408h-1685z" />
<glyph unicode="&#x42a;" horiz-adv-x="1781" d="M22 1181v228h751v-561h446q123 0 215 -30t152.5 -84.5t91 -131.5t30.5 -171q0 -90 -32.5 -169t-98 -137t-163 -91.5t-227.5 -33.5h-709v1181h-456zM773 230h366q140 0 205.5 50.5t65.5 146.5q0 93 -69.5 143.5t-207.5 50.5h-360v-391z" />
<glyph unicode="&#x42b;" horiz-adv-x="2005" d="M137 0v1409h295v-561h438q123 0 215 -30t152.5 -84.5t91 -131.5t30.5 -171q0 -90 -32.5 -169t-98 -137t-163 -91.5t-227.5 -33.5h-701zM432 230h358q140 0 205.5 50.5t65.5 146.5q0 93 -69.5 143.5t-207.5 50.5h-352v-391zM1573 0v1409h295v-1409h-295z" />
<glyph unicode="&#x42c;" horiz-adv-x="1472" d="M137 0v1409h295v-561h478q123 0 215 -30t152.5 -84.5t91 -131.5t30.5 -171q0 -90 -32.5 -169t-98 -137t-163 -91.5t-227.5 -33.5h-741zM432 230h398q140 0 205.5 50.5t65.5 146.5q0 93 -69.5 143.5t-207.5 50.5h-392v-391z" />
<glyph unicode="&#x42d;" horiz-adv-x="1457" d="M54 383l252 97q19 -49 48 -97t72 -86t103 -61.5t141 -23.5q95 0 167 27.5t122 78t78 122.5t34 161h-547v228h546q-5 87 -33 155.5t-77.5 116t-120.5 72.5t-162 25q-75 0 -133.5 -19.5t-102 -51.5t-72 -73.5t-42.5 -86.5l-255 71q28 86 76.5 157.5t123 124t176.5 81.5 t238 29q175 0 304.5 -50.5t214.5 -144t126.5 -226.5t41.5 -298q0 -159 -42 -293t-128 -231.5t-218 -152t-312 -54.5q-138 0 -240 34.5t-176 90.5t-123 129t-80 149z" />
<glyph unicode="&#x42e;" horiz-adv-x="2112" d="M137 0v1409h295v-561h283q17 135 67.5 243t133 183t195.5 115.5t255 40.5q159 0 282 -51t207 -145t127.5 -226.5t43.5 -296.5q0 -165 -45 -300t-130.5 -231t-208.5 -148t-278 -52q-150 0 -265.5 46t-197 128.5t-129 197t-60.5 252.5h-280v-604h-295zM1005 711 q0 -110 22 -201.5t67 -157.5t112.5 -103t158.5 -37q97 0 165 37.5t111.5 104t63.5 158t20 199.5q0 111 -22 200.5t-67 153.5t-112.5 98.5t-157.5 34.5q-92 0 -160 -34.5t-112.5 -98.5t-66.5 -153.5t-22 -200.5z" />
<glyph unicode="&#x42f;" horiz-adv-x="1472" d="M35 0l381 592q-67 16 -124 50.5t-98.5 85.5t-65 116.5t-23.5 144.5q0 97 32.5 174.5t98.5 132t164.5 84t230.5 29.5h704v-1409h-295v535h-346l-327 -535h-332zM402 977q0 -47 15 -86t45.5 -67.5t78 -44t113.5 -15.5h386v416h-378q-125 0 -192.5 -50t-67.5 -153z" />
<glyph unicode="&#x430;" d="M60 306q0 96 33.5 161.5t91.5 106t136 59t166 19.5l233 4v55q0 59 -10.5 98.5t-30.5 64.5t-49.5 35.5t-67.5 10.5q-35 0 -62.5 -7t-47.5 -24.5t-32.5 -47t-17.5 -74.5l-293 14q12 71 44 129.5t88.5 101.5t139 66.5t193.5 23.5q101 0 180 -25t134 -74.5t84 -121.5t29 -167 v-394q0 -38 3.5 -68t13 -50.5t27 -31t45.5 -10.5q32 0 62 6v-152q-25 -6 -45 -11t-40 -8t-42.5 -5t-52.5 -2q-106 0 -156.5 52t-60.5 153h-6q-56 -101 -143.5 -157t-212.5 -56q-78 0 -139.5 21.5t-104.5 63t-66 102.5t-23 139zM353 328q0 -77 35.5 -114.5t94.5 -37.5 q54 0 98 23t74.5 60.5t47.5 86.5t17 100v55l-144 -2q-45 -2 -85.5 -7.5t-71 -23t-48.5 -50.5t-18 -90z" />
<glyph unicode="&#x431;" horiz-adv-x="1265" d="M94 636q0 192 32.5 331t105 235.5t188.5 154t282 85.5q65 11 121 19.5t107.5 15.5t99.5 13t97 12v-235q-97 -10 -188 -21.5t-193 -27.5q-88 -13 -158 -29t-123 -40t-91 -58.5t-62.5 -86.5t-37 -123t-15.5 -168q22 67 58 124.5t89 99.5t125 66t166 24q251 0 369 -130.5 t118 -392.5q0 -265 -141 -394.5t-409 -129.5q-127 0 -227.5 35t-170 113t-106 203t-36.5 305zM390 501q0 -96 18.5 -159.5t51.5 -101t77.5 -53t96.5 -15.5q59 0 106.5 15t80.5 52.5t51 101t18 160.5t-16.5 161t-47.5 102.5t-75.5 54t-99.5 15.5q-59 0 -107 -16.5t-82.5 -55 t-53 -102.5t-18.5 -159z" />
<glyph unicode="&#x432;" horiz-adv-x="1259" d="M143 0v1082h536q93 0 178.5 -12t150 -43t103 -83t38.5 -133q0 -52 -19.5 -93t-53 -70t-77.5 -47.5t-93 -27.5v-7q59 -7 108.5 -24.5t86.5 -48.5t57.5 -75.5t20.5 -105.5q0 -157 -119.5 -234.5t-338.5 -77.5h-578zM425 175h227q66 0 112 8t74.5 26t41 46t12.5 67 q0 42 -13.5 71.5t-43.5 47.5t-78 26t-116 8h-216v-300zM425 647h208q64 0 107 7.5t68.5 23t36.5 40.5t11 60q0 67 -48 98t-162 31h-221v-260z" />
<glyph unicode="&#x433;" horiz-adv-x="853" d="M143 0v1082h655v-190h-373v-892h-282z" />
<glyph unicode="&#x434;" horiz-adv-x="1300" d="M14 190h125q30 47 58 114t55.5 170.5t54.5 251t55 356.5h754v-892h146v-598h-245v408h-758v-408h-245v598zM430 190h404v702h-236q-18 -138 -38 -249t-41.5 -197.5t-43.5 -149.5t-45 -106z" />
<glyph unicode="&#x435;" d="M80 546q0 155 41.5 261t112 171.5t162.5 94.5t194 29q128 0 218.5 -44.5t148.5 -124.5t85 -191.5t27 -246.5v-8h-694q0 -68 12 -126.5t39 -101t70 -67t104 -24.5q74 0 121 31.5t67 97.5l265 -23q-18 -46 -50.5 -98t-86.5 -95.5t-134.5 -72t-195.5 -28.5 q-117 0 -210.5 34.5t-159.5 105t-101 177t-35 249.5zM377 663h420q-8 131 -63 196.5t-148 65.5q-43 0 -80.5 -14.5t-65 -46t-44.5 -81.5t-19 -120z" />
<glyph unicode="&#x436;" horiz-adv-x="1452" d="M-17 0l318 571q-17 14 -39 44.5t-53 85.5l-216 381h274l136 -257q39 -75 67 -118t49.5 -64.5t40.5 -27.5t40 -7v474h252v-474q21 1 40 7t40.5 27.5t49.5 64.5t67 118l136 257h274l-216 -381q-30 -56 -52.5 -86t-39.5 -44l318 -571h-297l-223 468q-7 -3 -18.5 -5 t-24.5 -3.5t-27 -2t-27 -0.5v-457h-252v457q-25 0 -54 3t-43 8l-223 -468h-297z" />
<glyph unicode="&#x437;" horiz-adv-x="1018" d="M53 288l241 44q9 -39 28 -69.5t45 -51.5t58 -32t66 -11q80 0 124.5 39.5t44.5 103.5q0 50 -21.5 81t-60.5 48.5t-93.5 24t-119.5 6.5v177q63 0 115 6.5t89.5 23t58 45t20.5 73.5q0 60 -39 93.5t-111 33.5q-30 0 -60.5 -6.5t-56 -23t-44 -44.5t-23.5 -70l-237 22 q13 75 49.5 131.5t93.5 94t132 56.5t163 19q91 0 165 -20.5t126.5 -57.5t81 -88.5t28.5 -114.5q0 -56 -19 -98.5t-52.5 -73.5t-79 -51t-97.5 -31v-2q56 -6 107 -25.5t89.5 -52.5t61.5 -79t23 -104q0 -69 -28 -128.5t-84.5 -103t-142 -68t-201.5 -24.5q-179 0 -289 80 t-151 228z" />
<glyph unicode="&#x438;" horiz-adv-x="1259" d="M142 0v1082h262v-486q0 -23 -2 -63t-5 -83t-6.5 -81.5t-6.5 -59.5l448 773h285v-1082h-260v550q0 19 1.5 49t4.5 62t6.5 62t7.5 50l-435 -773h-300z" />
<glyph unicode="&#x439;" horiz-adv-x="1259" d="M142 0v1082h262v-486q0 -23 -2 -63t-5 -83t-6.5 -81.5t-6.5 -59.5l448 773h285v-1082h-260v550q0 19 1.5 49t4.5 62t6.5 62t7.5 50l-435 -773h-300zM231 1524h224q5 -103 52 -151t131 -48t131 48t52 151h224q-2 -43 -10 -85t-25.5 -79.5t-47 -70t-74 -56t-106.5 -36.5 t-144 -13t-144 13t-106.5 36.5t-74 56t-47 70t-25.5 79.5t-10 85z" />
<glyph unicode="&#x43a;" horiz-adv-x="1025" d="M142 0v1082h282v-464q23 1 41 5.5t38.5 24.5t47 61t65.5 116l126 257h274l-206 -381q-32 -60 -58.5 -88t-43.5 -42l318 -571h-287l-233 458q-14 -5 -39 -8t-43 -3v-447h-282z" />
<glyph unicode="&#x43b;" horiz-adv-x="1301" d="M21 -7v191q11 -4 30 -6.5t38 -2.5q29 0 50.5 12.5t39.5 47.5t33.5 98t33 163.5t38 244.5t47.5 341h827v-1082h-282v892h-310q-25 -184 -46 -323t-43 -240.5t-47.5 -168.5t-60.5 -107t-82 -56.5t-112 -16.5q-14 0 -36.5 1t-46 3t-43 4.5t-28.5 4.5z" />
<glyph unicode="&#x43c;" horiz-adv-x="1515" d="M143 0v1082h372l180 -561q20 -65 40 -139.5t28 -146.5q10 72 29 146.5t39 139.5l175 561h366v-1082h-246v628q0 22 1.5 55.5t4.5 70t6 72t6 61.5l-274 -887h-213l-284 885q3 -29 6 -64.5t5.5 -70.5t3.5 -67t1 -55v-628h-246z" />
<glyph unicode="&#x43d;" horiz-adv-x="1237" d="M143 0v1082h282v-428h387v428h282v-1082h-282v463h-387v-463h-282z" />
<glyph unicode="&#x43e;" horiz-adv-x="1251" d="M80 542q0 121 33.5 223.5t101.5 177.5t171 117t241 42q146 0 249 -42t168.5 -116.5t96 -177t30.5 -224.5q0 -124 -34.5 -227t-103.5 -177.5t-172 -116t-240 -41.5q-132 0 -233 41t-169.5 115t-103.5 177.5t-35 228.5zM375 542q0 -97 17.5 -167t49.5 -115t77 -66.5 t99 -21.5q62 0 110.5 21.5t81.5 66.5t50 115t17 167q0 193 -63 280t-183 87q-124 0 -190 -88t-66 -279z" />
<glyph unicode="&#x43f;" horiz-adv-x="1237" d="M143 0v1082h951v-1082h-282v892h-387v-892h-282z" />
<glyph unicode="&#x440;" horiz-adv-x="1251" d="M135 1082h273q2 -7 4.5 -27t4 -46t2.5 -54t1 -49h4q51 107 140 153t206 46q103 0 178 -42t123.5 -116t72 -176.5t23.5 -224.5q0 -123 -24.5 -227t-75.5 -179t-129.5 -117.5t-185.5 -42.5q-48 0 -95.5 10t-90.5 32.5t-79.5 59t-62.5 90.5h-6q1 -5 2 -25t2 -46.5t1.5 -56 t0.5 -54.5v-415h-281v1258q0 83 -2.5 148t-5.5 101zM420 538q0 -106 20 -176.5t52.5 -112.5t73.5 -59.5t83 -17.5q54 0 96 21.5t70.5 67t43.5 116.5t15 169q0 185 -56 274.5t-167 89.5q-42 0 -83.5 -17.5t-74 -60t-53 -114t-20.5 -180.5z" />
<glyph unicode="&#x441;" d="M80 535q0 135 35 240.5t101 178t162.5 110.5t219.5 38q105 0 186.5 -28t140.5 -76.5t95.5 -114.5t50.5 -142l-283 -14q-12 83 -60 132.5t-136 49.5q-113 0 -165 -93t-52 -270q0 -374 221 -374q80 0 134 50.5t67 150.5l282 -13q-10 -75 -45.5 -143.5t-96 -121t-146.5 -84 t-197 -31.5q-129 0 -225.5 40t-160.5 113t-96 175.5t-32 226.5z" />
<glyph unicode="&#x442;" horiz-adv-x="1003" d="M58 892v190h888v-190h-303v-892h-282v892h-303z" />
<glyph unicode="&#x443;" d="M16 1082h297l170 -507q4 -11 12.5 -37t19 -59.5t21.5 -70.5t21 -70.5t17 -59.5t10 -37q3 11 9.5 36.5t15 58t18.5 68.5t19 69t16.5 59.5t11.5 38.5l160 511h294l-428 -1139q-39 -95 -79 -164t-88.5 -114.5t-109 -67.5t-140.5 -22q-44 0 -90 3t-87 10v200q20 -3 48.5 -5.5 t48.5 -2.5q41 0 73 9t58 30t48.5 56t43.5 88l18 48z" />
<glyph unicode="&#x444;" horiz-adv-x="1792" d="M82 540q0 123 22.5 226t69.5 177.5t119 116.5t171 42q49 0 94 -11t83.5 -34t70 -59t53.5 -87h2q0 10 -0.5 29.5t-0.5 44.5t-0.5 52t-0.5 52v395h261v-578q47 107 129 153t189 46q95 0 163.5 -42t113.5 -116t66.5 -176.5t21.5 -224.5q0 -123 -22.5 -227t-69.5 -179 t-119 -117.5t-170 -42.5q-44 0 -87.5 10t-83.5 32.5t-73.5 59t-57.5 90.5h-6q1 -5 2 -25t2 -46.5t1.5 -56t0.5 -54.5v-415h-261v601h-2q-45 -105 -125.5 -150.5t-192.5 -45.5q-94 0 -162.5 42t-113 117t-66 177.5t-21.5 223.5zM375 540q0 -368 192 -368q37 0 73 18t64.5 61 t46.5 115.5t18 180.5q0 107 -17.5 177.5t-45.5 112t-64 58t-73 16.5q-47 0 -83 -21t-61 -66t-37.5 -115t-12.5 -169zM1022 538q0 -106 17.5 -176.5t45.5 -112.5t64 -59.5t72 -17.5q94 0 144.5 89t50.5 285q0 185 -48.5 274.5t-145.5 89.5q-36 0 -72 -17.5t-64.5 -60 t-46 -114t-17.5 -180.5z" />
<glyph unicode="&#x445;" d="M14 0l396 559l-377 523h303l231 -354l230 354h305l-377 -520l399 -562h-305l-252 392l-254 -392h-299z" />
<glyph unicode="&#x446;" horiz-adv-x="1259" d="M143 0v1082h282v-892h387v892h282v-892h146v-598h-245v408h-852z" />
<glyph unicode="&#x447;" horiz-adv-x="1189" d="M83 644v438h280v-386q0 -33 8 -61.5t26 -49.5t48.5 -33t75.5 -12q33 0 62.5 3t58.5 9t59 14.5t65 18.5v497h281v-1082h-281v415q-43 -15 -85.5 -30.5t-88.5 -27.5t-96 -20t-107 -8q-74 0 -131 21.5t-96 62.5t-59 99.5t-20 131.5z" />
<glyph unicode="&#x448;" horiz-adv-x="1707" d="M143 0v1082h262v-892h316v892h262v-892h315v892h262v-1082h-1417z" />
<glyph unicode="&#x449;" horiz-adv-x="1728" d="M143 0v1082h262v-892h317v892h262v-892h316v892h262v-892h146v-598h-245v408h-1320z" />
<glyph unicode="&#x44a;" horiz-adv-x="1493" d="M38 892v190h655v-435h248q235 0 351 -77t116 -241q0 -77 -28.5 -138t-86.5 -103.5t-145.5 -65t-205.5 -22.5h-531v892h-373zM693 175h188q69 0 115.5 10t74 29.5t39 48.5t11.5 66q0 38 -12.5 65.5t-40.5 45.5t-74 26.5t-112 8.5h-189v-300z" />
<glyph unicode="&#x44b;" horiz-adv-x="1749" d="M143 0v1082h282v-435h272q235 0 356 -77t121 -241q0 -77 -30 -138t-90 -103.5t-149 -65t-207 -22.5h-555zM425 175h212q69 0 117 10t77.5 29.5t42.5 48.5t13 66q0 76 -58 111t-191 35h-213v-300zM1325 0v1082h281v-1082h-281z" />
<glyph unicode="&#x44c;" horiz-adv-x="1259" d="M143 0v1082h282v-435h272q235 0 356 -77t121 -241q0 -77 -30 -138t-90 -103.5t-149 -65t-207 -22.5h-555zM425 175h212q69 0 117 10t77.5 29.5t42.5 48.5t13 66q0 76 -58 111t-191 35h-213v-300z" />
<glyph unicode="&#x44d;" horiz-adv-x="1131" d="M52 360l282 13q13 -100 67 -150.5t134 -50.5q58 0 98 18.5t65.5 54t38 88t15.5 120.5h-309v190h309q-3 61 -15 110.5t-37 84t-64.5 53t-96.5 18.5q-88 0 -136 -49.5t-60 -132.5l-283 14q14 76 50.5 142t95.5 114.5t140.5 76.5t186.5 28q123 0 219.5 -38t162.5 -110.5 t101 -178t35 -240.5q0 -124 -32 -226.5t-96 -175.5t-160.5 -113t-225.5 -40q-111 0 -197 31.5t-146.5 84t-96 121t-45.5 143.5z" />
<glyph unicode="&#x44e;" horiz-adv-x="1749" d="M143 0v1082h282v-428h200q14 99 52.5 181.5t103 141.5t155.5 92t209 33q141 0 240.5 -42t162.5 -116.5t92 -177t29 -224.5q0 -124 -33 -227t-99.5 -177.5t-166 -116t-231.5 -41.5q-117 0 -208.5 34.5t-157 98t-104 152.5t-48.5 198h-196v-463h-282zM913 542 q0 -97 16 -167t45.5 -115t71 -66.5t91.5 -21.5q114 0 176 87.5t62 282.5q0 193 -58 280t-168 87q-115 0 -175.5 -88t-60.5 -279z" />
<glyph unicode="&#x44f;" horiz-adv-x="1195" d="M-1 0l322 471q-50 12 -92.5 35.5t-74 61t-49 88t-17.5 116.5q0 79 32 137.5t93 96.5t150 57t202 19h487v-1082h-282v435h-192l-272 -435h-307zM375 756q0 -72 46 -110.5t143 -38.5h208v300h-192q-102 0 -153.5 -36.5t-51.5 -114.5z" />
<glyph unicode="&#x451;" d="M80 546q0 155 41.5 261t112 171.5t162.5 94.5t194 29q128 0 218.5 -44.5t148.5 -124.5t85 -191.5t27 -246.5v-8h-694q0 -68 12 -126.5t39 -101t70 -67t104 -24.5q74 0 121 31.5t67 97.5l265 -23q-18 -46 -50.5 -98t-86.5 -95.5t-134.5 -72t-195.5 -28.5 q-117 0 -210.5 34.5t-159.5 105t-101 177t-35 249.5zM260 1199v219h214v-219h-214zM377 663h420q-8 131 -63 196.5t-148 65.5q-43 0 -80.5 -14.5t-65 -46t-44.5 -81.5t-19 -120zM694 1199v219h217v-219h-217z" />
<glyph unicode="&#x452;" horiz-adv-x="1251" d="M10 1175v170h133v139h281v-139h310v-170h-310v-136q0 -32 -1 -64.5t-2.5 -61t-2.5 -51.5t-2 -36h4q57 124 143 180t205 56q98 0 165.5 -32t110 -88t61.5 -132t19 -164v-774q0 -65 -16 -119t-50.5 -94t-89 -62t-131.5 -22q-56 0 -97.5 2.5t-72.5 6.5v198q13 -2 26 -3 t25 -1q39 0 63.5 8t38.5 27t19 50t5 77v626q0 63 -10 115.5t-33 90t-60 58.5t-90 21q-51 0 -92.5 -22.5t-71.5 -64t-46.5 -99t-16.5 -126.5v-539h-281v1175h-133z" />
<glyph unicode="&#x453;" horiz-adv-x="853" d="M143 0v1082h655v-190h-373v-892h-282zM303 1183v31l252 288h258v-43l-340 -276h-170z" />
<glyph unicode="&#x454;" horiz-adv-x="1131" d="M80 535q0 135 35 240.5t101 178t162.5 110.5t219.5 38q105 0 186.5 -28t140.5 -76.5t95.5 -114.5t50.5 -142l-283 -14q-12 83 -60 132.5t-136 49.5q-101 0 -154.5 -67.5t-58.5 -198.5h309v-190h-309q5 -141 60 -211t157 -70q80 0 134 50.5t67 150.5l282 -13 q-10 -75 -45.5 -143.5t-96 -121t-146.5 -84t-197 -31.5q-129 0 -225.5 40t-160.5 113t-96 175.5t-32 226.5z" />
<glyph unicode="&#x455;" d="M72 270l247 37q12 -45 33 -73t52 -43t72.5 -20t94.5 -5q48 0 89.5 5.5t72 19t47.5 38t17 61.5q0 42 -24.5 66.5t-67 40t-100 27t-122.5 26.5q-68 15 -134 36t-118 57t-84 91.5t-32 140.5q0 77 30 137.5t88 103t143.5 65t196.5 22.5q88 0 164 -16.5t136 -52t100.5 -90.5 t56.5 -133l-249 -26q-7 39 -25 64.5t-44.5 40.5t-61.5 20.5t-77 5.5q-100 0 -150 -25.5t-50 -85.5q0 -37 20.5 -59t58 -36.5t89 -25t112.5 -25.5q75 -16 147.5 -37.5t129 -59t91 -96.5t34.5 -150q0 -78 -32.5 -140t-94.5 -105.5t-152 -67t-205 -23.5q-103 0 -186 15 t-145.5 49.5t-104.5 89.5t-63 136z" />
<glyph unicode="&#x456;" horiz-adv-x="569" d="M143 0v1082h281v-1082h-281zM145 1277v207h281v-207h-281z" />
<glyph unicode="&#x457;" horiz-adv-x="576" d="M-38 1199v219h214v-219h-214zM145 0v1082h281v-1082h-281zM396 1199v219h217v-219h-217z" />
<glyph unicode="&#x458;" horiz-adv-x="569" d="M-32 -218q13 -2 26 -3t25 -1q39 0 63 8t38 27t19 50t5 77v1142h281v-1210q0 -65 -16 -119t-50.5 -94t-89 -62t-131.5 -22q-56 0 -97.5 2.5t-72.5 6.5v198zM144 1277v207h281v-207h-281z" />
<glyph unicode="&#x459;" horiz-adv-x="1984" d="M21 -7v191q11 -4 30 -6.5t38 -2.5q29 0 50.5 12.5t39.5 47.5t33.5 98t33 163.5t38 244.5t47.5 341h819v-435h272q235 0 356 -77t121 -241q0 -77 -30 -138t-90 -103.5t-149 -65t-207 -22.5h-555v892h-302q-25 -184 -46 -323t-43 -240.5t-47.5 -168.5t-60.5 -107t-82 -56.5 t-112 -16.5q-14 0 -36.5 1t-46 3t-43 4.5t-28.5 4.5zM1150 175h212q69 0 117 10t77.5 29.5t42.5 48.5t13 66q0 76 -58 111t-191 35h-213v-300z" />
<glyph unicode="&#x45a;" horiz-adv-x="1856" d="M143 0v1082h282v-428h351v428h282v-435h236q235 0 356 -77t121 -241q0 -77 -30 -138t-90 -103.5t-149 -65t-207 -22.5h-519v463h-351v-463h-282zM1058 175h176q69 0 117 10t77.5 29.5t42.5 48.5t13 66q0 76 -58 111t-191 35h-177v-300z" />
<glyph unicode="&#x45b;" horiz-adv-x="1251" d="M10 1175v170h133v139h281v-139h310v-170h-310v-136q0 -32 -1 -64.5t-2.5 -61t-2.5 -51.5t-2 -36h4q57 124 143 180t205 56q98 0 165.5 -32t110 -88t61.5 -132t19 -164v-646h-280v566q0 63 -10 115.5t-33 90t-60 58.5t-90 21q-51 0 -92.5 -22.5t-71.5 -64t-46.5 -99 t-16.5 -126.5v-539h-281v1175h-133z" />
<glyph unicode="&#x45c;" horiz-adv-x="1025" d="M142 0v1082h282v-464q23 1 41 5.5t38.5 24.5t47 61t65.5 116l126 257h274l-206 -381q-32 -60 -58.5 -88t-43.5 -42l318 -571h-287l-233 458q-14 -5 -39 -8t-43 -3v-447h-282zM406 1183v31l252 288h258v-43l-340 -276h-170z" />
<glyph unicode="&#x45e;" d="M16 1082h297l170 -507q4 -11 12.5 -37t19 -59.5t21.5 -70.5t21 -70.5t17 -59.5t10 -37q3 11 9.5 36.5t15 58t18.5 68.5t19 69t16.5 59.5t11.5 38.5l160 511h294l-428 -1139q-39 -95 -79 -164t-88.5 -114.5t-109 -67.5t-140.5 -22q-44 0 -90 3t-87 10v200q20 -3 48.5 -5.5 t48.5 -2.5q41 0 73 9t58 30t48.5 56t43.5 88l18 48zM161 1524h224q5 -103 52 -151t131 -48t131 48t52 151h224q-2 -43 -10 -85t-25.5 -79.5t-47 -70t-74 -56t-106.5 -36.5t-144 -13t-144 13t-106.5 36.5t-74 56t-47 70t-25.5 79.5t-10 85z" />
<glyph unicode="&#x45f;" horiz-adv-x="1237" d="M143 0v1082h282v-891h387v891h282v-1082h-353v-408h-245v408h-353z" />
<glyph unicode="&#x490;" horiz-adv-x="997" d="M137 1v1408h566v411h250v-639h-521v-1180h-295z" />
<glyph unicode="&#x491;" horiz-adv-x="915" d="M143 0v1082h441v408h245v-598h-404v-892h-282z" />
<glyph unicode="&#x1e80;" horiz-adv-x="1933" d="M2 1409h299l176 -784q15 -64 28 -126t24 -111q12 -57 22 -109q15 74 29 144q6 30 13 62t13.5 63t13 59.5t11.5 51.5l174 750h330l178 -750q6 -24 12 -53.5t12 -61.5l12 -62q6 -32 11 -62q12 -70 24 -141q12 56 25 116q11 51 25 112t28 118l170 784h299l-364 -1409h-350 l-191 815q-9 37 -19.5 88t-19.5 99q-11 55 -20 114q-11 -59 -22 -115q-5 -24 -10 -49.5t-10.5 -50t-10 -46.5t-9.5 -40l-190 -815h-350zM664 1772v43h258l251 -254v-31h-169z" />
<glyph unicode="&#x1e81;" horiz-adv-x="1593" d="M-6 1082h264l137 -636q6 -27 13 -60.5t13 -62.5q7 -34 15 -68q7 38 14 74q6 31 13 63t12 54l170 636h301l166 -636q7 -26 14 -59t13 -62q7 -34 14 -70q8 36 15 70q6 29 13 62t13 59l143 636h260l-284 -1082h-297l-172 660q-8 31 -16 69.5t-15 72.5l-16 80l-18 -80 q-8 -34 -17 -73t-17 -71l-174 -658h-297zM445 1459v43h258l251 -288v-31h-169z" />
<glyph unicode="&#x1e82;" horiz-adv-x="1933" d="M2 1409h299l176 -784q15 -64 28 -126t24 -111q12 -57 22 -109q15 74 29 144q6 30 13 62t13.5 63t13 59.5t11.5 51.5l174 750h330l178 -750q6 -24 12 -53.5t12 -61.5l12 -62q6 -32 11 -62q12 -70 24 -141q12 56 25 116q11 51 25 112t28 118l170 784h299l-364 -1409h-350 l-191 815q-9 37 -19.5 88t-19.5 99q-11 55 -20 114q-11 -59 -22 -115q-5 -24 -10 -49.5t-10.5 -50t-10 -46.5t-9.5 -40l-190 -815h-350zM823 1530v31l252 254h258v-43l-340 -242h-170z" />
<glyph unicode="&#x1e83;" horiz-adv-x="1593" d="M-6 1082h264l137 -636q6 -27 13 -60.5t13 -62.5q7 -34 15 -68q7 38 14 74q6 31 13 63t12 54l170 636h301l166 -636q7 -26 14 -59t13 -62q7 -34 14 -70q8 36 15 70q6 29 13 62t13 59l143 636h260l-284 -1082h-297l-172 660q-8 31 -16 69.5t-15 72.5l-16 80l-18 -80 q-8 -34 -17 -73t-17 -71l-174 -658h-297zM637 1183v31l252 288h258v-43l-340 -276h-170z" />
<glyph unicode="&#x1e84;" horiz-adv-x="1933" d="M2 1409h299l176 -784q15 -64 28 -126t24 -111q12 -57 22 -109q15 74 29 144q6 30 13 62t13.5 63t13 59.5t11.5 51.5l174 750h330l178 -750q6 -24 12 -53.5t12 -61.5l12 -62q6 -32 11 -62q12 -70 24 -141q12 56 25 116q11 51 25 112t28 118l170 784h299l-364 -1409h-350 l-191 815q-9 37 -19.5 88t-19.5 99q-11 55 -20 114q-11 -59 -22 -115q-5 -24 -10 -49.5t-10.5 -50t-10 -46.5t-9.5 -40l-190 -815h-350zM644 1530v219h194v-219h-194zM1098 1530v219h197v-219h-197z" />
<glyph unicode="&#x1e85;" horiz-adv-x="1593" d="M-6 1082h264l137 -636q6 -27 13 -60.5t13 -62.5q7 -34 15 -68q7 38 14 74q6 31 13 63t12 54l170 636h301l166 -636q7 -26 14 -59t13 -62q7 -34 14 -70q8 36 15 70q6 29 13 62t13 59l143 636h260l-284 -1082h-297l-172 660q-8 31 -16 69.5t-15 72.5l-16 80l-18 -80 q-8 -34 -17 -73t-17 -71l-174 -658h-297zM472 1199v219h214v-219h-214zM906 1199v219h217v-219h-217z" />
<glyph unicode="&#x1ef2;" horiz-adv-x="1366" d="M35 1409h309l338 -596l342 596h309l-502 -831v-578h-294v578zM377 1772v43h258l251 -254v-31h-169z" />
<glyph unicode="&#x1ef3;" d="M16 1082h297l170 -507q4 -11 12.5 -37t19 -59.5t21.5 -70.5t21 -70.5t17 -59.5t10 -37q3 11 9.5 36.5t15 58t18.5 68.5t19 69t16.5 59.5t11.5 38.5l160 511h294l-428 -1139q-39 -95 -79 -164t-88.5 -114.5t-109 -67.5t-140.5 -22q-44 0 -90 3t-87 10v200q20 -3 48.5 -5.5 t48.5 -2.5q41 0 73 9t58 30t48.5 56t43.5 88l18 48zM205 1459v43h258l251 -288v-31h-169z" />
<glyph unicode="&#x2000;" horiz-adv-x="1058" />
<glyph unicode="&#x2001;" horiz-adv-x="2116" />
<glyph unicode="&#x2002;" horiz-adv-x="1058" />
<glyph unicode="&#x2003;" horiz-adv-x="2116" />
<glyph unicode="&#x2004;" horiz-adv-x="705" />
<glyph unicode="&#x2005;" horiz-adv-x="529" />
<glyph unicode="&#x2006;" horiz-adv-x="352" />
<glyph unicode="&#x2007;" horiz-adv-x="352" />
<glyph unicode="&#x2008;" horiz-adv-x="264" />
<glyph unicode="&#x2009;" horiz-adv-x="423" />
<glyph unicode="&#x200a;" horiz-adv-x="117" />
<glyph unicode="&#x2010;" horiz-adv-x="682" d="M80 409v244h520v-244h-520z" />
<glyph unicode="&#x2011;" horiz-adv-x="682" d="M80 409v244h520v-244h-520z" />
<glyph unicode="&#x2012;" horiz-adv-x="682" d="M80 409v244h520v-244h-520z" />
<glyph unicode="&#x2013;" d="M62 448v203h1014v-203h-1014z" />
<glyph unicode="&#x2014;" horiz-adv-x="2048" d="M0 448v203h2048v-203h-2048z" />
<glyph unicode="&#x2015;" horiz-adv-x="2048" d="M0 448v203h2048v-203h-2048z" />
<glyph unicode="&#x2017;" horiz-adv-x="1131" d="M-20 -172h1177v-78h-1177v78zM-20 -434h1177v-78h-1177v78z" />
<glyph unicode="&#x2018;" horiz-adv-x="569" d="M139 831v195q0 67 7.5 122t21.5 101t34 85.5t45 74.5h183q-28 -35 -52 -74t-41.5 -80t-27.5 -82t-10 -81h127v-261h-287z" />
<glyph unicode="&#x2019;" horiz-adv-x="569" d="M139 831q28 36 52 75t41.5 79.5t27.5 82t10 81.5h-127v260h287v-195q0 -67 -7 -121.5t-21 -101t-34.5 -85.5t-46.5 -75h-182z" />
<glyph unicode="&#x201a;" horiz-adv-x="569" d="M138 -317q29 35 53.5 74t42.5 80t28 82t10 81h-129v260h288v-194q0 -67 -7.5 -122t-21.5 -101.5t-34 -85.5t-45 -74h-185z" />
<glyph unicode="&#x201b;" horiz-adv-x="569" d="M139 1214v195h287v-260h-127q0 -40 10 -81.5t27.5 -82t41.5 -79.5t52 -75h-182q-26 36 -46.5 75t-34.5 85.5t-21 101t-7 121.5z" />
<glyph unicode="&#x201c;" horiz-adv-x="1024" d="M151 831v195q0 67 7.5 122t21.5 101t34 85.5t45 74.5h183q-28 -35 -52 -74t-41.5 -80t-27.5 -82t-10 -81h127v-261h-287zM579 831v195q0 67 7.5 122t22 101t35 85.5t46.5 74.5h182q-28 -35 -52 -74t-41.5 -80t-27.5 -82t-10 -81h127v-261h-289z" />
<glyph unicode="&#x201d;" horiz-adv-x="1024" d="M151 831q28 36 52 75t41.5 79.5t27.5 82t10 81.5h-127v260h287v-192q0 -68 -7 -123.5t-21 -102t-34.5 -85.5t-46.5 -75h-182zM579 831q57 72 95 154.5t38 163.5h-127v260h287v-192q0 -68 -7.5 -123.5t-21.5 -102t-34 -85.5t-46 -75h-184z" />
<glyph unicode="&#x201e;" horiz-adv-x="1024" d="M151 -317q28 35 52 74t41.5 80t27.5 82t10 81h-127v260h287v-194q0 -67 -7 -122t-21 -101.5t-34.5 -85.5t-46.5 -74h-182zM579 -317q29 35 53 74t42 80t28 82t10 81h-127v260h287v-194q0 -67 -7.5 -122t-21.5 -101.5t-34 -85.5t-46 -74h-184z" />
<glyph unicode="&#x2020;" d="M138 933v204l332 -29l-28 376h255l-28 -376l333 29v-204l-333 27l-22 -1098h-155l-22 1098z" />
<glyph unicode="&#x2021;" d="M136 186v204l342 -27l26 307l-26 310l-341 -27v204l341 -29l-16 356h215l-16 -356l341 29v-204l-341 27l-26 -310l26 -307l340 27v-204l-340 29l16 -356h-215l16 356z" />
<glyph unicode="&#x2022;" horiz-adv-x="717" d="M65 676q0 61 23 114.5t62.5 93t92.5 62.5t113 23q61 0 114.5 -23t93.5 -62.5t63.5 -93t23.5 -114.5t-23.5 -114.5t-63.5 -93.5t-93.5 -63.5t-114.5 -23.5q-60 0 -113 23.5t-92.5 63.5t-62.5 93.5t-23 114.5z" />
<glyph unicode="&#x2026;" horiz-adv-x="2048" d="M225 0v305h288v-305h-288zM880 0v305h286v-305h-286zM1528 0v305h288v-305h-288z" />
<glyph unicode="&#x202f;" horiz-adv-x="423" />
<glyph unicode="&#x2030;" horiz-adv-x="2048" d="M41 1061q0 106 22 175t61 109.5t92 57t115 16.5q58 0 110 -16.5t91 -57t61.5 -109.5t22.5 -175q0 -100 -23 -168.5t-62 -111t-91.5 -61t-112.5 -18.5t-112 18.5t-90.5 60.5t-61 110.5t-22.5 169.5zM185 0l812 1409h199l-814 -1409h-197zM216 1061q0 -67 7 -112t21 -72 t35 -38.5t50 -11.5q27 0 48 11.5t35 38.5t21 72t7 112q0 69 -7 114t-20.5 71.5t-34 37.5t-47.5 11q-30 0 -51.5 -11t-36 -38t-21 -72t-6.5 -113zM767 356q0 106 22 175t61 109.5t92 57t115 16.5q58 0 110 -16.5t91 -57t61.5 -109.5t22.5 -175q0 -100 -23 -168.5t-62 -111 t-91.5 -61t-112.5 -18.5t-112 18.5t-90.5 60.5t-61 110.5t-22.5 169.5zM941 356q0 -67 7 -112t21 -72t35.5 -38.5t50.5 -11.5q27 0 48 11.5t35 38.5t21 72t7 112q0 69 -7 114t-20.5 71.5t-34 37.5t-47.5 11q-30 0 -52 -11t-36 -38t-21 -72t-7 -113zM1432 356q0 106 22 175 t61 109.5t92 57t115 16.5q59 0 110.5 -16.5t90.5 -57t61.5 -109.5t22.5 -175q0 -100 -22.5 -168.5t-62 -111t-92 -61t-112.5 -18.5t-112 18.5t-90.5 60.5t-61 110.5t-22.5 169.5zM1607 356q0 -67 7 -112t21 -72t35 -38.5t50 -11.5q27 0 48 11.5t35 38.5t21 72t7 112 q0 69 -7 114t-20.5 71.5t-34 37.5t-47.5 11q-30 0 -51.5 -11t-36 -38t-21 -72t-6.5 -113z" />
<glyph unicode="&#x2032;" horiz-adv-x="491" d="M85 890l64 519h306l-158 -519h-212z" />
<glyph unicode="&#x2033;" horiz-adv-x="981" d="M85 890l64 519h306l-158 -519h-212zM574 890l64 519h306l-158 -519h-212z" />
<glyph unicode="&#x2039;" horiz-adv-x="682" d="M92 502v71l258 367h236v-37l-254 -366l256 -361v-35h-238z" />
<glyph unicode="&#x203a;" horiz-adv-x="682" d="M93 141v35l256 361l-254 366v37h238l256 -367v-71l-256 -361h-240z" />
<glyph unicode="&#x203c;" horiz-adv-x="1237" d="M193 0v270h288v-270h-288zM193 1409h294l-32 -983h-230zM750 0v270h288v-270h-288zM750 1409h294l-32 -983h-230z" />
<glyph unicode="&#x203e;" horiz-adv-x="682" d="M-130 1454v166h942v-166h-942z" />
<glyph unicode="&#x2044;" horiz-adv-x="342" d="M-377 0l895 1409h201l-895 -1409h-201z" />
<glyph unicode="&#x205f;" horiz-adv-x="529" />
<glyph unicode="&#x20a3;" d="M7 258v149h130v1002h955v-208h-670v-396h637v-208h-637v-190h314v-149h-314v-258h-285v258h-130z" />
<glyph unicode="&#x20a4;" d="M21 508v149h178v112h-178v149h178v104q0 92 24 167.5t75.5 129t132 82.5t194.5 29q96 0 164 -20.5t115.5 -58.5t78 -91.5t49.5 -120.5l-233 -47q-21 77 -62 112t-107 35q-91 0 -131 -57.5t-40 -182.5v-81h286v-149h-286v-112h286v-149h-286v-4q0 -59 -12.5 -104 t-35.5 -79.5t-57 -61t-77 -50.5h380q104 0 157.5 49.5t70.5 143.5l233 -39q-13 -73 -43 -139t-79 -115.5t-116 -79t-154 -29.5h-694v205q39 22 72 46.5t56 58t36 80t13 112.5v6h-188z" />
<glyph unicode="&#x20a7;" horiz-adv-x="2240" d="M158 0v1409h314q131 0 229 -30.5t163 -86t97.5 -134t32.5 -173.5q0 -47 -8 -90t-23 -82h86l88 242h125v-242h147v-166h-147v-369q0 -37 5.5 -61.5t16.5 -38.5t28 -20t41 -6q23 0 39 3.5t35 10.5v-158q-34 -11 -66.5 -17.5t-80.5 -6.5q-125 0 -181.5 61t-56.5 184v418 h-104v113q-27 -48 -67.5 -86.5t-94.5 -66.5t-120.5 -43t-146.5 -15h-110v-549h-241zM399 740h83q67 0 117.5 12.5t84.5 41t51 75t17 114.5q0 67 -18.5 111.5t-54 71.5t-87.5 38.5t-118 11.5h-75v-476zM1414 230l199 26q15 -61 59.5 -85t123.5 -24q36 0 66.5 3t52.5 12t34 25 t12 41q0 27 -17.5 43.5t-48.5 27.5t-74 19.5t-95 19.5q-49 11 -97.5 27.5t-86.5 45t-61.5 71.5t-23.5 106q0 115 89 175.5t260 60.5q149 0 237 -63.5t111 -187.5l-201 -17q-5 28 -18.5 47t-33 31t-43.5 17t-50 5q-69 0 -102.5 -13.5t-33.5 -49.5q0 -21 16 -34.5t45 -23 t68.5 -17.5t87.5 -19q48 -10 98.5 -27t91 -46.5t66.5 -74t26 -110.5q0 -127 -97 -194t-276 -67q-83 0 -147.5 13.5t-111.5 43.5t-78 77.5t-47 115.5z" />
<glyph unicode="&#x20ac;" d="M10 510l40 149h77q-1 5 -1.5 20t-0.5 31q0 17 0.5 34.5t1.5 21.5h-117l40 149h87q15 123 53 219t101.5 162t153.5 100t209 34q101 0 177 -27.5t130 -76t86.5 -114t45.5 -141.5l-280 -16q-10 74 -52 115t-116 41q-47 0 -84 -16t-64.5 -51.5t-45 -91.5t-25.5 -137h327 l-29 -149h-303q-1 -11 -1.5 -26.5t-0.5 -29.5t1 -26.5t2 -24.5h340l-30 -149h-304q6 -67 21 -124t42.5 -98.5t68.5 -65t98 -23.5q72 0 115 46t53 128l277 -16q-13 -80 -44 -149t-85 -119.5t-133 -79.5t-187 -29q-125 0 -216.5 39t-153.5 109.5t-97 168t-48 213.5h-129z" />
<glyph unicode="&#x2122;" horiz-adv-x="2048" d="M125 1270v139h674v-139h-251v-502h-180v502h-243zM893 768v641h248l139 -301q9 -20 20.5 -47.5t21.5 -52.5q11 -29 23 -60q12 31 23 60l21 52.5t20 47.5l144 301h243v-641h-165v340q0 14 1 42t3 57q2 34 4 73q-16 -39 -30 -75q-12 -31 -25 -61.5t-21 -47.5l-154 -328 h-131l-149 328q-8 19 -21 49.5t-26 60.5q-15 35 -30 74q2 -41 4 -76q2 -30 2.5 -57.5t0.5 -38.5v-340h-166z" />
<glyph unicode="&#x2202;" horiz-adv-x="1012" d="M53 371q0 59 10 127t32 136t56 131t82 111.5t110.5 77.5t140.5 29q76 0 137 -43t92 -119h4q1 20 1 42v48q0 173 -53 268t-164 95q-25 0 -53.5 -5t-56 -14t-53.5 -21.5t-46 -27.5l45 205q39 23 92.5 40t119.5 17q110 0 185.5 -46t122.5 -123t67.5 -179t20.5 -213 q0 -49 -3 -101.5t-9 -105.5t-14.5 -105.5t-20.5 -100.5q-28 -117 -73 -212.5t-107.5 -164t-143 -105.5t-181.5 -37q-94 0 -159 32t-105.5 86.5t-58 126.5t-17.5 151zM290 375q0 -46 8.5 -84t25.5 -65t42 -41.5t57 -14.5q51 0 94.5 40.5t77 107.5t57 152t33.5 175 q-7 36 -21.5 67t-35 53.5t-45.5 35t-54 12.5q-41 0 -74.5 -21.5t-60 -56.5t-46.5 -81t-32.5 -94.5t-19 -96.5t-6.5 -88z" />
<glyph unicode="&#x2206;" horiz-adv-x="1253" d="M43 0v215l397 1194h368l401 -1194v-215h-1166zM336 231h580l-207 689q-14 47 -28.5 95.5t-26.5 89.5t-20.5 69.5t-9.5 33.5q-1 -5 -9 -34t-19.5 -70.5t-25 -90t-27.5 -93.5z" />
<glyph unicode="&#x220f;" horiz-adv-x="1686" d="M204 -455v1864h1278v-1864h-282v1620h-701v-1620h-295z" />
<glyph unicode="&#x2211;" horiz-adv-x="1460" d="M134 -295l606 776l-586 776v152h1137v-227h-766l528 -697l-548 -712h843v-228h-1214v160z" />
<glyph unicode="&#x221a;" horiz-adv-x="1124" d="M2 729v166h311l219 -635l412 1360h186l-506 -1645h-168l-270 754h-184z" />
<glyph unicode="&#x221e;" horiz-adv-x="1460" d="M72 597q0 77 23.5 144t66.5 116.5t103 78t132 28.5q103 0 185.5 -55.5t147.5 -183.5q27 49 60.5 91t73.5 73t87.5 48.5t102.5 17.5q75 0 137 -26t106 -74.5t68 -117t24 -154.5q0 -74 -23.5 -140.5t-66.5 -117t-102 -80t-131 -29.5q-103 0 -187 56t-149 183 q-28 -49 -62.5 -91t-76 -73t-90 -48t-104.5 -17q-70 0 -130 26t-103 74t-67.5 117t-24.5 154zM262 595q0 -39 11 -74.5t32 -62.5t52 -42.5t72 -15.5q59 0 107 47.5t95 147.5q-22 47 -43.5 84t-45.5 62.5t-51.5 38.5t-62.5 13q-37 0 -67.5 -15.5t-52.5 -42t-34 -62.5t-12 -78 zM828 585q44 -94 93.5 -145t119.5 -51q36 0 65.5 15.5t50 42t31.5 62t11 76.5t-10.5 77t-30.5 62.5t-49 42t-67 15.5q-60 0 -113 -48t-101 -149z" />
<glyph unicode="&#x222b;" horiz-adv-x="561" d="M-129 -217q21 -8 52 -16.5t67 -8.5q44 0 74 15t48 41.5t25.5 62.5t7.5 78v1151q0 87 26 157.5t76.5 120t125.5 76.5t174 27q40 0 83.5 -5.5t71.5 -13.5v-219q-20 10 -51.5 17.5t-67.5 7.5q-44 0 -74 -15.5t-48.5 -42.5t-26.5 -62.5t-8 -74.5v-1153q0 -87 -25.5 -157.5 t-76 -120t-125 -76.5t-173.5 -27q-19 0 -40.5 1.5t-42.5 4.5t-39.5 6.5t-32.5 8.5v217z" />
<glyph unicode="&#x2248;" horiz-adv-x="1124" d="M43 301v213q51 38 119 61t152 23q83 0 163 -23t156 -49q22 -7 47 -15t51 -15t52 -11t50 -4q68 0 132 25t116 67v-219q-32 -22 -62.5 -37.5t-62 -25t-66.5 -13.5t-76 -4q-75 0 -147.5 22t-147.5 48q-66 23 -120.5 34t-100.5 11q-39 0 -72.5 -6t-64 -17.5t-59.5 -27.5 t-59 -37zM43 782v213q51 39 119 61.5t152 22.5q41 0 82 -6.5t81 -17t79 -23.5t77 -26q45 -16 98.5 -29.5t101.5 -13.5q68 0 132 25t116 67v-219q-32 -23 -62.5 -38.5t-62 -24.5t-66.5 -13t-76 -4q-75 0 -147.5 20.5t-147.5 46.5q-132 47 -221 47q-39 0 -72.5 -6t-64 -17 t-59.5 -27.5t-59 -37.5z" />
<glyph unicode="&#x2260;" horiz-adv-x="1124" d="M29 291v221h327l166 330h-493v223h602l133 258h211l-131 -258h252v-223h-361l-166 -330h527v-221h-635l-129 -254h-213l129 254h-219z" />
<glyph unicode="&#x2264;" horiz-adv-x="1124" d="M49 0v223h1024v-223h-1024zM49 631v321l1026 346v-227l-832 -280l832 -279v-227z" />
<glyph unicode="&#x2265;" horiz-adv-x="1124" d="M49 0v223h1026v-223h-1026zM49 285v227l831 279l-831 280v227l1026 -346v-321z" />
<glyph unicode="&#x25ca;" horiz-adv-x="1012" d="M3 721l451 725h104l454 -723l-454 -723h-104zM218 723l289 -494l289 494l-289 481z" />
<glyph unicode="&#x25fc;" horiz-adv-x="1080" d="M0 0v1080h1080v-1080h-1080z" />
</font>
</defs>
</svg>
