<?xml version="1.0" standalone="no"?>
<!DOCTYPE svg PUBLIC "-//W3C//DTD SVG 1.1//EN" "http://www.w3.org/Graphics/SVG/1.1/DTD/svg11.dtd" >
<svg xmlns="http://www.w3.org/2000/svg" xmlns:xlink="http://www.w3.org/1999/xlink" version="1.1">
<metadata>
Created by FontForge 20160405 at Mon Mar 11 09:53:50 2019
 By www-data
(c)1995 Aaron Smith  Coin-Toss Productions
</metadata>
<defs>
<font id="Arnold21" horiz-adv-x="515" >
  <font-face 
    font-family="Arnold 2.1"
    font-weight="400"
    font-stretch="normal"
    units-per-em="1000"
    panose-1="0 0 4 0 0 0 0 0 0 0"
    ascent="800"
    descent="-200"
    x-height="681"
    cap-height="710"
    bbox="-105 -292 1066.51 1022"
    underline-thickness="20"
    underline-position="-163"
    unicode-range="U+0020-FDFC"
  />
<missing-glyph horiz-adv-x="500" 
d="M63 0v970h375v-970h-375zM125 63h250v845h-250v-845z" />
    <glyph glyph-name="uniFDFC" unicode="&#xfdfc;" horiz-adv-x="908" arabic-form="isolated" 
d="M502 7q-5 3 -10 3l6 19q21 -1 44 -1q24 -1 43 3q42 10 86 58q41 42 70 101q29 58 29 100q0 36 -15 72q-12 30 -34 58l19 76q5 -5 9 -11q25 -28 37 -59q15 -35 15 -84v-111q0 -49 -31 -111q-26 -52 -66 -95q-38 -42 -62 -47q-22 -5 -48 -2q-21 3 -47 11q-24 7 -47 14z
M272 675q2 1 2 0q11 -4 23 -9q8 -3 16 -7v-5q3 -2 7 -5q0 -30 -1 -46q-2 -15 -7 -43l-18 5q0 -10 9 -90q10 -93 15 -151q7 -92 7 -142q0 -73 -24 -122q-22 -43 -64 -68q-36 -23 -90 -35q-63 -14 -97 11q-11 8 -18 17q-28 29 -28 89q0 40 8 84q7 38 21 84q10 34 27 81l10 -7
q-1 -1 -1 -4l9 -5q-12 -33 -20 -59q-10 -36 -15 -61q-7 -33 -7 -63q0 -40 16 -63q2 -2 6 -5q28 -22 80 -10q56 12 102 49q52 41 52 82q0 43 -11 146q-8 79 -19 178l-10 80l-8 4v5l-8 4q0 61 18 115l5 1q2 -8 2 -13q1 2 1 3l6 1q1 -17 4 -25v-1zM599 476l2 2q22 -35 29 -58
q8 -33 8 -114v-112l-185 -41q-21 -5 -33 15q-6 4 -10 12q-12 20 -18 61q-6 42 -9 104q-2 47 -4 105q-2 54 -6 81q-3 27 -9 44q-7 20 -19 33l39 98q3 -9 4 -19l4 10q13 -53 18 -128q4 -46 6 -222q7 -79 17 -100l2 -2q5 -4 11 -3l161 36q0 53 -10 80q-5 19 -30 50l26 79
q3 -5 6 -11zM369 8l-9 4l25 72l53 -27l-2 -5l10 -5l-25 -70l-53 26zM444 65l-10 5l25 72l53 -26l-2 -5l10 -5l-24 -70l-54 25zM502 7q-5 3 -10 3l6 19q21 -1 44 -1q24 -1 43 3q42 10 86 58q41 42 70 101q29 58 29 100q0 36 -15 72q-12 30 -34 58l19 76q5 -5 9 -11
q25 -28 37 -59q15 -35 15 -84v-111q0 -49 -31 -111q-26 -52 -66 -95q-38 -42 -62 -47q-22 -5 -48 -2q-21 3 -47 11q-24 7 -47 14zM272 675q2 1 2 0q11 -4 23 -9q8 -3 16 -7v-5q3 -2 7 -5q0 -30 -1 -46q-2 -15 -7 -43l-18 5q0 -10 9 -90q10 -93 15 -151q7 -92 7 -142
q0 -73 -24 -122q-22 -43 -64 -68q-36 -23 -90 -35q-63 -14 -97 11q-11 8 -18 17q-28 29 -28 89q0 40 8 84q7 38 21 84q10 34 27 81l10 -7q-1 -1 -1 -4l9 -5q-12 -33 -20 -59q-10 -36 -15 -61q-7 -33 -7 -63q0 -40 16 -63q2 -2 6 -5q28 -22 80 -10q56 12 102 49q52 41 52 82
q0 43 -11 146q-8 79 -19 178l-10 80l-8 4v5l-8 4q0 61 18 115l5 1q2 -8 2 -13q1 2 1 3l6 1q1 -17 4 -25v-1zM599 476l2 2q22 -35 29 -58q8 -33 8 -114v-112l-185 -41q-21 -5 -33 15q-6 4 -10 12q-12 20 -18 61q-6 42 -9 104q-2 47 -4 105q-2 54 -6 81q-3 27 -9 44
q-7 20 -19 33l39 98q3 -9 4 -19l4 10q13 -53 18 -128q4 -46 6 -222q7 -79 17 -100l2 -2q5 -4 11 -3l161 36q0 53 -10 80q-5 19 -30 50l26 79q3 -5 6 -11zM369 8l-9 4l25 72l53 -27l-2 -5l10 -5l-25 -70l-53 26zM444 65l-10 5l25 72l53 -26l-2 -5l10 -5l-24 -70l-54 25z
M510 9q-5 2 -10 3l5 19q22 0 45 -1q23 -2 43 3q41 9 86 57q40 43 70 102q29 59 29 101q0 35 -15 71q-12 30 -34 58l19 76q5 -6 10 -11q24 -28 37 -59q13 -36 13 -84v-111q0 -50 -30 -111q-26 -52 -66 -96q-37 -41 -62 -46q-22 -6 -48 -2q-21 2 -47 11q-25 7 -47 14zM280 677
q2 1 3 0q10 -4 22 -9q8 -4 15 -7v-6q4 -1 9 -3q0 -31 -3 -47q-1 -15 -6 -43l-19 5q1 -10 10 -90q10 -93 15 -151q7 -92 7 -143q0 -72 -24 -121q-22 -42 -63 -68q-37 -23 -91 -35q-63 -15 -97 11q-10 8 -18 17q-28 29 -28 89q0 40 7 83q8 39 22 85q9 33 27 80l10 -6
q0 -2 -2 -4l10 -6q-12 -32 -20 -58q-11 -36 -16 -61q-6 -33 -6 -63q0 -41 16 -63l5 -5q29 -22 81 -10q55 12 102 49q51 40 51 81q0 43 -10 147q-8 79 -19 177l-11 81l-7 4v5l-8 4q0 61 18 115l6 1q0 -7 1 -13q1 1 1 2l5 1q2 -17 5 -24v-1zM608 478v2q24 -36 30 -58
q8 -33 8 -114v-112l-185 -42q-21 -4 -33 15q-6 5 -10 13q-11 19 -18 61q-6 42 -10 104q-1 47 -3 105q-2 54 -6 81q-3 27 -9 43q-8 20 -19 34l39 98q2 -9 4 -19l4 10q13 -53 18 -128q3 -46 7 -222q6 -79 16 -100q1 -1 1 -2q5 -5 11 -4l161 37q0 53 -8 80q-7 18 -31 49l26 80
q3 -6 7 -11zM377 10l-9 4l25 71l53 -26l-2 -5l9 -5l-24 -70l-53 26zM451 68l-9 4l25 72l53 -27l-2 -5l10 -4l-25 -71l-53 26zM510 9q-5 2 -10 3l5 19q22 0 45 -1q23 -2 43 3q41 9 86 57q40 43 70 102q29 59 29 101q0 35 -15 71q-12 30 -34 58l19 76q5 -6 10 -11
q24 -28 37 -59q13 -36 13 -84v-111q0 -50 -30 -111q-26 -52 -66 -96q-37 -41 -62 -46q-22 -6 -48 -2q-21 2 -47 11q-25 7 -47 14zM280 677q2 1 3 0q10 -4 22 -9q8 -4 15 -7v-6q4 -1 9 -3q0 -31 -3 -47q-1 -15 -6 -43l-19 5q1 -10 10 -90q10 -93 15 -151q7 -92 7 -143
q0 -72 -24 -121q-22 -42 -63 -68q-37 -23 -91 -35q-63 -15 -97 11q-10 8 -18 17q-28 29 -28 89q0 40 7 83q8 39 22 85q9 33 27 80l10 -6q0 -2 -2 -4l10 -6q-12 -32 -20 -58q-11 -36 -16 -61q-6 -33 -6 -63q0 -41 16 -63l5 -5q29 -22 81 -10q55 12 102 49q51 40 51 81
q0 43 -10 147q-8 79 -19 177l-11 81l-7 4v5l-8 4q0 61 18 115l6 1q0 -7 1 -13q1 1 1 2l5 1q2 -17 5 -24v-1zM608 478v2q24 -36 30 -58q8 -33 8 -114v-112l-185 -42q-21 -4 -33 15q-6 5 -10 13q-11 19 -18 61q-6 42 -10 104q-1 47 -3 105q-2 54 -6 81q-3 27 -9 43
q-8 20 -19 34l39 98q2 -9 4 -19l4 10q13 -53 18 -128q3 -46 7 -222q6 -79 16 -100q1 -1 1 -2q5 -5 11 -4l161 37q0 53 -8 80q-7 18 -31 49l26 80q3 -6 7 -11zM377 10l-9 4l25 71l53 -26l-2 -5l9 -5l-24 -70l-53 26zM451 68l-9 4l25 72l53 -27l-2 -5l10 -4l-25 -71l-53 26z
M512 9q-5 3 -9 3l5 20q21 -1 44 -2q24 -1 43 3q42 10 87 58q40 43 69 102q29 58 29 100q0 36 -15 72q-11 29 -33 58l18 76l10 -12q25 -27 37 -59q14 -35 14 -84v-110q0 -50 -31 -111q-26 -53 -66 -96q-37 -42 -61 -47q-23 -5 -49 -2q-20 3 -47 11q-24 7 -47 15zM283 678h2
q10 -4 22 -9q9 -4 16 -8v-5q3 -2 8 -4q0 -31 -2 -47q-2 -15 -7 -42l-18 4q1 -9 9 -90q11 -93 16 -151q7 -92 7 -142q0 -73 -24 -121q-22 -43 -64 -69q-37 -23 -91 -35q-63 -14 -97 11q-10 8 -17 18q-28 29 -28 89q0 39 7 83q7 38 21 85q10 33 27 80l11 -7q-1 -1 -2 -4l10 -5
q-13 -32 -20 -59q-11 -35 -16 -61q-6 -32 -6 -62q0 -41 16 -64q2 -1 5 -4q28 -23 80 -11q56 12 102 50q51 40 51 81q0 43 -9 147q-9 79 -20 177l-10 81l-8 3v5l-8 5q0 61 18 114l6 1q0 -7 2 -13v3l6 1q1 -17 5 -24v-1zM610 478l1 3q23 -36 29 -58q9 -34 9 -114v-112
l-185 -42q-22 -4 -34 15q-5 4 -9 12q-12 20 -18 61q-7 43 -10 104q-2 47 -4 105q-1 55 -6 81q-2 27 -8 44q-8 20 -20 34l39 97q3 -9 4 -18l5 9q12 -52 18 -128q3 -45 6 -221q6 -79 17 -100q0 -2 1 -3q5 -4 11 -3l161 37q0 53 -9 80q-6 18 -31 49l26 80q4 -6 7 -12zM379 10
l-9 5l25 71l53 -27l-1 -5l9 -4l-24 -71l-54 26zM453 68l-9 5l26 72l53 -27l-2 -5l9 -4l-25 -71l-53 25zM512 9q-5 3 -9 3l5 20q21 -1 44 -2q24 -1 43 3q42 10 87 58q40 43 69 102q29 58 29 100q0 36 -15 72q-11 29 -33 58l18 76l10 -12q25 -27 37 -59q14 -35 14 -84v-110
q0 -50 -31 -111q-26 -53 -66 -96q-37 -42 -61 -47q-23 -5 -49 -2q-20 3 -47 11q-24 7 -47 15zM283 678h2q10 -4 22 -9q9 -4 16 -8v-5q3 -2 8 -4q0 -31 -2 -47q-2 -15 -7 -42l-18 4q1 -9 9 -90q11 -93 16 -151q7 -92 7 -142q0 -73 -24 -121q-22 -43 -64 -69q-37 -23 -91 -35
q-63 -14 -97 11q-10 8 -17 18q-28 29 -28 89q0 39 7 83q7 38 21 85q10 33 27 80l11 -7q-1 -1 -2 -4l10 -5q-13 -32 -20 -59q-11 -35 -16 -61q-6 -32 -6 -62q0 -41 16 -64q2 -1 5 -4q28 -23 80 -11q56 12 102 50q51 40 51 81q0 43 -9 147q-9 79 -20 177l-10 81l-8 3v5l-8 5
q0 61 18 114l6 1q0 -7 2 -13v3l6 1q1 -17 5 -24v-1zM610 478l1 3q23 -36 29 -58q9 -34 9 -114v-112l-185 -42q-22 -4 -34 15q-5 4 -9 12q-12 20 -18 61q-7 43 -10 104q-2 47 -4 105q-1 55 -6 81q-2 27 -8 44q-8 20 -20 34l39 97q3 -9 4 -18l5 9q12 -52 18 -128q3 -45 6 -221
q6 -79 17 -100q0 -2 1 -3q5 -4 11 -3l161 37q0 53 -9 80q-6 18 -31 49l26 80q4 -6 7 -12zM379 10l-9 5l25 71l53 -27l-1 -5l9 -4l-24 -71l-54 26zM453 68l-9 5l26 72l53 -27l-2 -5l9 -4l-25 -71l-53 25zM520 11q-5 2 -10 3l6 19q22 0 44 -1q24 -1 43 3q42 9 87 58
q40 43 69 101q29 59 29 101q0 35 -15 72q-12 29 -34 57l19 77l10 -12q24 -28 37 -59q14 -35 14 -84v-111q0 -50 -31 -110q-26 -53 -66 -96q-37 -41 -62 -47q-22 -5 -48 -2q-20 3 -47 11q-24 7 -47 14zM290 679q2 1 3 0q10 -4 22 -8q9 -4 16 -8v-5q4 -2 7 -4q0 -31 -1 -47
q-1 -15 -7 -42l-18 4q1 -10 9 -89q10 -93 15 -152q7 -92 7 -142q0 -73 -23 -122q-22 -42 -64 -68q-36 -23 -91 -35q-63 -14 -97 12q-10 7 -18 16q-28 29 -28 89q0 40 8 84q7 38 21 84q10 33 27 80l11 -6q-2 -1 -2 -4l9 -6q-11 -32 -20 -58q-11 -36 -15 -61q-6 -33 -6 -63
q0 -40 15 -63q3 -2 6 -5q28 -22 81 -10q54 12 101 49q51 41 51 81q0 44 -10 148q-7 79 -19 176l-10 81l-8 4v6l-8 3q0 61 18 115l6 1q1 -7 1 -13q1 1 1 2l6 2q1 -18 4 -25v-1zM618 480l1 2q22 -36 29 -57q8 -34 8 -115v-111l-184 -42q-21 -5 -34 15q-6 4 -9 12
q-13 20 -19 61q-6 42 -9 105q-2 47 -4 104q-2 54 -6 81q-3 27 -8 44q-8 20 -20 34l40 97q2 -9 4 -19l3 10q13 -53 19 -127q3 -46 6 -223q6 -79 16 -100q1 -1 2 -1q5 -5 11 -4l161 36q0 53 -10 80q-5 19 -29 50l25 79q3 -5 7 -11zM388 12l-10 5l25 71l53 -27l-1 -5l9 -4
l-24 -71l-54 26zM461 70l-9 4l25 72l53 -26l-1 -5l9 -5l-24 -71l-54 26zM520 11q-5 2 -10 3l6 19q22 0 44 -1q24 -1 43 3q42 9 87 58q40 43 69 101q29 59 29 101q0 35 -15 72q-12 29 -34 57l19 77l10 -12q24 -28 37 -59q14 -35 14 -84v-111q0 -50 -31 -110q-26 -53 -66 -96
q-37 -41 -62 -47q-22 -5 -48 -2q-20 3 -47 11q-24 7 -47 14zM290 679q2 1 3 0q10 -4 22 -8q9 -4 16 -8v-5q4 -2 7 -4q0 -31 -1 -47q-1 -15 -7 -42l-18 4q1 -10 9 -89q10 -93 15 -152q7 -92 7 -142q0 -73 -23 -122q-22 -42 -64 -68q-36 -23 -91 -35q-63 -14 -97 12
q-10 7 -18 16q-28 29 -28 89q0 40 8 84q7 38 21 84q10 33 27 80l11 -6q-2 -1 -2 -4l9 -6q-11 -32 -20 -58q-11 -36 -15 -61q-6 -33 -6 -63q0 -40 15 -63q3 -2 6 -5q28 -22 81 -10q54 12 101 49q51 41 51 81q0 44 -10 148q-7 79 -19 176l-10 81l-8 4v6l-8 3q0 61 18 115l6 1
q1 -7 1 -13q1 1 1 2l6 2q1 -18 4 -25v-1zM618 480l1 2q22 -36 29 -57q8 -34 8 -115v-111l-184 -42q-21 -5 -34 15q-6 4 -9 12q-13 20 -19 61q-6 42 -9 105q-2 47 -4 104q-2 54 -6 81q-3 27 -8 44q-8 20 -20 34l40 97q2 -9 4 -19l3 10q13 -53 19 -127q3 -46 6 -223
q6 -79 16 -100q1 -1 2 -1q5 -5 11 -4l161 36q0 53 -10 80q-5 19 -29 50l25 79q3 -5 7 -11zM388 12l-10 5l25 71l53 -27l-1 -5l9 -4l-24 -71l-54 26zM461 70l-9 4l25 72l53 -26l-1 -5l9 -5l-24 -71l-54 26z" />
    <glyph glyph-name=".notdef" horiz-adv-x="500" 
d="M63 0v970h375v-970h-375zM125 63h250v845h-250v-845z" />
    <glyph glyph-name=".null" horiz-adv-x="0" 
 />
    <glyph glyph-name="nonmarkingreturn" horiz-adv-x="341" 
 />
    <glyph glyph-name="space" unicode=" " horiz-adv-x="341" 
 />
    <glyph glyph-name="exclam" unicode="!" horiz-adv-x="292" 
d="M234 635q-40 -224 -74 -433q-39 -32 -104 -28q-8 5 -12 16q-4 8 -7 17q0 155 11 248q8 68 31 240l50 10q36 7 59 7q55 0 55 -40q0 -15 -9 -37zM145 8q-24 -28 -64 -28q-15 0 -28 4q-40 13 -51 44q-1 9 -1 17q0 30 21 51q22 37 67 37q41 0 56 -37q11 -27 11 -48
q0 -22 -11 -40z" />
    <glyph glyph-name="quotedbl" unicode="&#x22;" horiz-adv-x="299" 
d="M225 712q2 -2 2 -12q0 -23 -14 -85q-16 -68 -27 -73t-28 -4q-19 2 -26 11q-4 5 -4 46q0 -176 -2 61q-1 32 10 46q13 19 48 19q29 0 41 -9zM96 677q0 -123 -15 -136q-4 -3 -13 -3q-39 0 -50 19q-5 10 -12 62q-6 48 -6 67q0 10 1 13q5 10 33 16q22 6 38 6q18 0 21 -6.5
t3 -37.5z" />
    <glyph glyph-name="numbersign" unicode="#" horiz-adv-x="782" 
d="M710 328q0 -10 3 -29t3 -28q0 -26 -23 -49l-191 -25q-13 -96 -29 -191q-9 -8 -26 -23q-7 -6 -35 -5q-6 4 -19 33q0 87 3 173q-43 -4 -81 -8l-16 -176q-34 -16 -46 -16t-43 11q-10 4 -15 13q-6 74 -4 161q-87 -3 -161 4q-8 4 -18 32q-5 14 -5 26t16 45q88 9 176 17
q3 38 8 80q-86 -2 -174 -2q-12 3 -32 18q-2 27 4 36l24 26q94 15 190 28l26 192q22 23 48 23q11 0 29 -3q22 -3 28 -4q-4 -90 -10 -192q38 5 76 9q8 87 19 173q8 1 40 11q27 8 39 8q35 0 35 -56q0 -19 -10 -123q104 9 124 9q56 0 56 -34q0 -13 -8 -39q-10 -31 -12 -40
q-86 -11 -173 -20q-4 -37 -9 -76q102 7 193 11zM406 384q-37 -3 -74 -5l-6 -75l75 5q2 37 5 75z" />
    <glyph glyph-name="dollar" unicode="$" horiz-adv-x="479" 
d="M441 751q2 -38 -16 -115q-21 -14 -96 -46q-62 -27 -91 -52q-42 -36 -51 -92q3 -49 40 -80q7 -5 79 -45q98 -54 98 -161q0 -29 -6 -52q-18 -71 -109 -113l-12 -131q-34 -16 -63 -16q-14 0 -48 11q-10 3 -15 13q-3 40 -4 84q-18 -2 -33 -2q-47 0 -61 21q-1 48 10 93
q75 -1 101 4q56 11 80 53q7 49 7 53q0 21 -11 37q-28 40 -90 74q-80 43 -99 59q-48 40 -52 102q19 115 127 199q-4 56 12 174q30 6 53 6q49 0 74 -27l7 -74q58 22 119 33q8 3 18 3q22 0 32 -13z" />
    <glyph glyph-name="percent" unicode="%" horiz-adv-x="677" 
d="M285 555q0 -68 -34 -126q-42 -68 -116 -68q-40 0 -72 20q-65 42 -65 138q0 43 15 82q15 41 44 69q52 51 97 51q30 0 60 -23q71 -53 71 -143zM200 623q-7 19 -16 24q-7 3 -24 3q-35 0 -55 -30q-33 -49 -33 -99q0 -21 6 -40q8 -26 43 -42q8 -4 18 -4q19 0 35 15
q14 14 22 34q15 40 15 79q0 33 -11 60zM493 703q30 16 55 0q21 -6 39 -34q-102 -154 -238 -359q-122 -169 -189 -316q-102 11 -75 0q-11 0 -28 19q-12 17 7 41q180 237 429 649zM632 177q0 -69 -35 -127q-42 -69 -116 -69q-41 0 -73 20q-65 43 -65 139q0 44 8 64
q22 60 52 89q51 50 97 50q31 0 61 -22q71 -54 71 -144zM541 246q-8 19 -17 24q-6 3 -24 3q-34 0 -54 -30q-34 -49 -34 -99q0 -21 6 -40q9 -26 43 -42q9 -4 19 -4q18 0 34 15q15 14 22 34q16 40 16 79q0 33 -11 60z" />
    <glyph glyph-name="ampersand" unicode="&#x26;" horiz-adv-x="468" 
d="M362 532q-26 4 -62 -2q-78 -14 -107 -56q-14 -20 -10 -35q2 -6 9 -13q25 -23 64 -23q5 0 36 5t32 4q14 -12 14 -48q0 -39 -17 -51q-164 -29 -183 -93q-4 -14 -1 -29q4 -16 15 -19q17 -5 36 -5q36 0 75 14q6 2 55 22q14 6 14 -48q0 -42 -13 -52q-51 -22 -92 -31l-14 -86
q-24 -9 -45 -9q-15 0 -44 12q-8 3 -11 10q-1 32 1 67q-52 9 -90 42q-24 21 -24 61q0 83 80 125q17 9 90 43q-48 11 -66 20q-35 16 -46 47q-3 13 -3 26q0 102 143 160l18 88q17 16 42 16q-11 0 62 -9l-9 -72q29 1 50 -1q15 -2 32 -23.5t17 -37.5q0 -21 -30 -21q-6 0 -18 2z
" />
    <glyph glyph-name="quotesingle" unicode="'" horiz-adv-x="225" 
d="M146 680q-20 -99 -70 -99q-2 0 -2 4q0 6 5.5 23t5.5 25q0 13 -14 9q-30 0 -50.5 21.5t-20.5 51.5q0 29 18.5 49t47.5 20q26 0 51 -16q31 -20 31 -65q0 -13 -2 -23z" />
    <glyph glyph-name="parenleft" unicode="(" horiz-adv-x="259" 
d="M224 738q-60 -141 -76 -190q-48 -147 -48 -274q0 -175 92 -312q2 -3 2 -6q0 -9 -23 -9q-33 0 -46 15q-126 146 -126 329q0 114 48 232q46 113 124 204q17 20 45 20q12 0 8 -9z" />
    <glyph glyph-name="parenright" unicode=")" horiz-adv-x="301" 
d="M103 717q126 -146 126 -329q0 -114 -48 -232q-46 -113 -124 -204q-17 -20 -45 -20q-12 0 -8 9q60 141 76 190q48 147 48 274q0 175 -92 312q-2 3 -2 6q0 9 23 9q33 0 46 -15z" />
    <glyph glyph-name="asterisk" unicode="*" horiz-adv-x="718" 
d="M627 487q-58 -45 -178 -137q59 -29 164 -82q56 -28 56 -54q0 -15 -25 -38t-39 -36q-111 51 -221 108l-23 -248q-34 -16 -63 -16q-14 0 -48 11q-10 3 -15 12q-4 50 -4 107q0 40 2 84q-82 -51 -155 -85q-9 -1 -32 19q-18 15 -22 32q-2 5 -4 35q98 71 198 140
q-101 56 -200 118q-9 9 -18 34q13 23 20 26q18 5 36 11q100 -42 199 -87q10 79 30 229q22 23 59 23q11 0 34 -3t34 -3q-4 -104 -12 -224q100 67 189 124l28 -38q14 -19 14 -37q0 -11 -4 -25z" />
    <glyph glyph-name="plus" unicode="+" horiz-adv-x="701" 
d="M569 304q-117 -9 -196 -12q-6 -82 -20 -219q-34 -16 -63 -16q-17 0 -48 12q-10 3 -15 12q-5 67 -5 129q0 42 2 81q-72 2 -193 8q-13 4 -32 21q0 26 4 33q14 13 27 26l206 23q9 62 30 201q22 23 59 23q11 0 34 -3t34 -3q-5 -118 -11 -206q9 0 133 5q78 3 78 -35
q0 -12 -10 -39q-7 -21 -14 -41z" />
    <glyph glyph-name="comma" unicode="," horiz-adv-x="222" 
d="M134 22q-6 -15 -32 -45q-33 -39 -57 -37q-1 1 -1 3q0 4 10.5 23t10.5 27q0 5 -15 12q-20 9 -22 11q-27 22 -27 55q0 32 20 54t52 22q33 0 52 -21.5t19 -54.5q0 -25 -10 -49z" />
    <glyph glyph-name="hyphen" unicode="-" horiz-adv-x="672" 
d="M570 304q-168 -13 -281 -13q-93 0 -258 8q-12 4 -31 21q0 26 4 33q14 13 27 26l243 26q103 9 242 14q78 3 78 -35q0 -14 -10 -40q-12 -31 -14 -40z" />
    <glyph glyph-name="period" unicode="." horiz-adv-x="232" 
d="M143 20q-24 -28 -64 -28q-14 0 -28 4q-39 15 -51 44q-1 8 -1 15q0 32 21 53q22 38 67 38q41 0 56 -38q11 -27 11 -48q0 -22 -11 -40z" />
    <glyph glyph-name="slash" unicode="/" horiz-adv-x="566" 
d="M542 673q-165 -293 -445 -728q-59 2 -101 46q-7 8 -7 18q52 128 203 364q65 101 229 343q13 4 25 4q28 0 96 -47z" />
    <glyph glyph-name="zero" unicode="0" horiz-adv-x="600" 
d="M562 465q0 -153 -100 -276q-103 -127 -241 -127q-48 0 -91 19q-82 35 -89 182q-7 136 51 252q60 122 170 176q40 20 85 20q57 0 108 -29q107 -65 107 -217zM404 464q0 129 -81 136q-55 5 -128 -126q-54 -97 -54 -195q0 -41 16 -71q18 -35 52 -35q10 0 21 5
q79 32 126.5 110.5t47.5 175.5z" />
    <glyph glyph-name="one" unicode="1" horiz-adv-x="600" 
d="M441 637q-19 -107 -39 -304q-21 -214 -36 -305q-38 -32 -104 -28q-8 6 -18 32q5 191 6 238q5 134 15 237q0 5 -6 5q-9 0 -35.5 -10t-37.5 -10q-5 0 -7 2q-23 69 -20 94q2 14 57 56q42 32 70 53q14 4 39 4q112 0 116 -64z" />
    <glyph glyph-name="two" unicode="2" horiz-adv-x="600" 
d="M562 148q2 -31 -38 -91q-37 -55 -53 -62q-179 42 -379 181q-5 4 -5 28q0 23 6 62q7 49 16 54q77 21 138 70q77 60 76 125q0 24 -32 37q-24 10 -51 10q-30 0 -72 -29q-29 -19 -48 -19q-16 0 -48 38t-32 55q0 3 3 6q92 71 216 79q16 1 34 1q180 0 180 -139q0 -32 -10 -62
q-53 -154 -208 -254q33 -25 155 -58q110 -30 152 -32z" />
    <glyph glyph-name="three" unicode="3" horiz-adv-x="600" 
d="M537 286q10 -26 10 -50q0 -97 -147 -180q-103 -58 -245 -64q-24 -1 -53 23t-29 44q0 27 64 26q33 -1 86 13q108 29 139 83q14 26 6 43q-3 7 -14 13q-32 19 -71 19q-18 0 -67.5 -11.5l-49.5 -11.5q-30 17 -30 73q0 31 15 44q63 17 123 71t71 107q3 16 -4.5 33.5t-23 20
t-25.5 2.5q-54 0 -117 -27q-12 -6 -85 -40q-14 -5 -23 33q-8 30 -8 49q0 28 10 36q152 78 268 78q79 0 144 -35q47 -26 47 -90q0 -111 -162 -242q67 -5 97 -13q51 -13 74 -47z" />
    <glyph glyph-name="four" unicode="4" horiz-adv-x="600" 
d="M538 365q3 -7 3 -19q0 -37 -19 -106q-23 -1 -53 -3q-6 -82 -20 -235q-33 -16 -62 -16q-16 0 -49 11q-9 3 -14 12q-3 101 4 224q-252 -6 -263 13q-5 8 -5 36q0 49 11.5 125t26.5 122q11 8 39 8q36 0 87 -11l-7 -144q8 -12 121 -13q11 123 36 319q21 22 62 22q36 0 61 -13
q-6 -162 -18 -330z" />
    <glyph glyph-name="five" unicode="5" horiz-adv-x="599" 
d="M551 562q-99 -21 -227 -35q-130 -11 -135 -15q-13 -64 -13 -103q0 -24 5 -33l70 53q66 42 124 42q65 0 118 -53q32 -32 32 -85q0 -59 -38 -135q-63 -125 -161 -170q-61 -28 -153 -28q-24 0 -50 2q-10 25 -10 52q0 31 14 58q91 -3 177 60q79 58 79 110q0 13 -6 21
q-20 30 -53 30q-41 0 -100 -45q-13 -10 -66 -57q-13 7 -111 89q-4 6 -4 31q0 40 13 142q13 115 25 129q155 44 302 70q89 21 137 21q12 0 16 -2q17 -55 15 -149z" />
    <glyph glyph-name="six" unicode="6" horiz-adv-x="600" 
d="M340 -3q-27 -9 -58 -9q-56 0 -115 27q-63 30 -87 75q-44 84 -44 178q0 120 72 245q61 107 165 200q55 -9 104 -54q-64 -53 -122 -136q-77 -110 -91 -217q41 49 111 78q67 28 135 28q151 0 151 -133q0 -85 -68 -169.5t-153 -112.5zM352 265q-63 0 -114 -36
q-74 -53 -74 -93q0 -13 5 -22q14 -27 73 -27q74 0 132 74q32 41 32 70q0 34 -54 34z" />
    <glyph glyph-name="seven" unicode="7" horiz-adv-x="599" 
d="M556 376q2 -66 -13 -86q-13 -2 -75 -10l-78 -299q-31 -8 -68 0q-10 2 -26 11.5t-24 12.5q13 54 43 268q-122 0 -134 1q-8 11 -8 32q0 22 15 84q28 9 90 9q24 0 53 -1q17 129 17 141v9l-10 3q-47 14 -156 22q-41 3 -134 8q-7 28 -5 44q3 24 15 81q7 7 34 6q233 -7 415 -80
q2 -27 2 -56q0 -85 -19 -192q37 -4 66 -8z" />
    <glyph glyph-name="eight" unicode="8" horiz-adv-x="600" 
d="M538 305q21 -29 21 -65q0 -77 -79 -147q-66 -61 -147 -84q-50 -14 -102 -14q-165 0 -187 123q-3 16 -3 25q0 93 127 152q-51 13 -82 50q-34 39 -34 91q0 67 52 134q45 58 109 94q90 51 180 51q89 0 131 -54q22 -28 22 -69q0 -63 -47 -136q-40 -63 -96 -106q103 1 135 -45
zM344 588q-51 0 -117 -35q-32 -17 -57 -50q-27 -35 -27 -69q0 -31 25 -50q22 -17 54 -17q76 0 141 91q32 46 32 81q0 49 -51 49zM349 257q-33 0 -82 -14q-122 -35 -122 -96q0 -54 84 -54q88 0 152 59q34 32 34 59q0 46 -66 46z" />
    <glyph glyph-name="nine" unicode="9" horiz-adv-x="600" 
d="M517 618q43 -83 43 -177q0 -122 -70 -246q-61 -107 -164 -200q-23 4 -54 21t-48 33q65 54 120 136q77 111 91 217q-42 -50 -108.5 -77.5t-135.5 -27.5q-47 0 -80 16q-69 31 -69 116t69 171q67 84 150 112q26 9 56 9q56 0 113 -27q64 -30 87 -76zM310 586q-82 0 -143 -80
q-35 -45 -35 -75q0 -38 59 -38q67 0 124 40q80 57 80 100q0 53 -85 53z" />
    <glyph glyph-name="colon" unicode=":" horiz-adv-x="232" 
d="M152 407q-24 -27 -64 -27q-14 0 -28 3q-39 15 -51 45q-1 7 -1 14q0 32 22 54q22 37 66 37q41 0 56 -37q11 -27 11 -49t-11 -40zM134 212q3 -18 3 -35q0 -93 -85 -84q-52 17 -52 65q0 31 24.5 57t55.5 26q41 0 54 -29z" />
    <glyph glyph-name="semicolon" unicode=";" horiz-adv-x="230" 
d="M152 496q8 -19 8 -37q0 -25 -15 -49q-25 -30 -61 -30q-11 0 -24 3q-39 15 -51 45q-1 7 -1 14q0 32 22 54q22 37 66 37q41 0 56 -37zM134 118q-6 -15 -32 -45q-33 -39 -57 -37q-1 1 -1 3q0 4 10.5 23t10.5 27q0 4 -16 12q-19 9 -21 11q-27 22 -27 55q0 32 20 54t52 22
q33 0 52 -21.5t19 -54.5q0 -25 -10 -49z" />
    <glyph glyph-name="less" unicode="&#x3c;" horiz-adv-x="617" 
d="M29 391q-37 -35 -27 -68q14 -44 166 -105q180 -72 262 -108q70 -26 93 15q15 44 -4 67q-51 22 -181 61q-185 70 -199 93q14 25 175 100q85 42 146 77q44 12 66 61q-10 26 -27 42q-17 17 -32 13q-332 -178 -438 -248z" />
    <glyph glyph-name="equal" unicode="=" horiz-adv-x="526" 
d="M448 395q-147 -19 -218 -19q-33 0 -98 1t-98 1q-12 3 -32 19q-2 26 4 35l24 26l179 30q48 8 178 19q12 1 23 1q57 0 57 -35q0 -15 -9 -39q-9 -27 -10 -39zM458 310q1 -7 4 -29q3 -17 3 -28q0 -27 -23 -49q-11 -1 -157 -23q-59 -9 -112 -9q-52 0 -142 8q-8 4 -18 33
q-5 14 -5 25q0 12 16 45q150 15 215 18z" />
    <glyph glyph-name="greater" unicode="&#x3e;" horiz-adv-x="591" 
d="M63 636q-15 4 -32 -13q-17 -16 -27 -42q-6 -28 66 -61q62 -35 146 -77q162 -75 176 -100q-14 -23 -200 -93q-129 -39 -181 -61q-19 -23 -4 -67q24 -40 94 -15q82 36 261 108q152 61 167 105q9 33 -27 68q-107 70 -439 248z" />
    <glyph glyph-name="question" unicode="?" horiz-adv-x="470" 
d="M432 460q-7 -62 -46 -98q-22 -20 -84.5 -51t-90.5 -59q-11 -11 -13 -45q-5 -17 -25 -29t-38 -12q-23 0 -63 15q-21 8 -19 49q2 46 48 84q21 19 84 54.5t69 85.5q-9 76 -91 113q-74 24 -149 49q-14 76 -11 113q12 15 51 12q138 -10 242 -77q120 -77 136 -204zM195 108
q9 -24 9 -44q0 -25 -13 -45q-26 -30 -69 -30q-56 0 -73 45q-5 41 23 69q25 40 71 40q39 0 52 -35z" />
    <glyph glyph-name="at" unicode="@" horiz-adv-x="796" 
d="M464 452q-39 14 -63 18q-72 11 -126 -46q-52 -55 -52 -134q0 -36 19 -57q21 -23 58 -23q47 0 82 40q31 36 42 89zM479 -1q-67 -18 -126 -18q-146 0 -251 91q-110 96 -110 241q0 165 113 278q119 120 304 120q153 0 245 -100q95 -103 77 -267q-24 -222 -212 -201
q-39 4 -54 31q-8 14 -8 27q-12 -22 -58 -45q-50 -24 -91 -24q-33 0 -77 27q-74 46 -75 144q0 101 65 171q69 75 183 75q58 0 95 -33q15 39 31 44q28 8 69 -60q-44 -46 -80 -157q-12 -37 -3 -75q10 -40 37 -40q46 -2 77 41q33 47 33 131q0 237 -261 237q-146 0 -236 -80
q-97 -85 -97 -237q0 -126 88 -198q82 -69 214 -69q68 0 182 57q14 -7 24 -20q20 -24 -2 -46q-26 -26 -96 -45z" />
    <glyph glyph-name="A" unicode="A" horiz-adv-x="553" 
d="M517 40q-34 -22 -97 -20q-25 35 -58 133l-3 9l-9 -1q-102 -11 -179 -37l-6 -2l-2 -6q-7 -34 -26 -92q-14 -26 -52 -25q-35 1 -80 7q16 143 77 350q25 86 112 353q5 7 42 10q34 3 46 1q18 -26 55 -97q106 -241 180 -583zM331 266q-14 48 -56 170l-25 66l-17 -69
q-13 -48 -37 -173l-4 -26l26 1q16 1 113 31z" />
    <glyph glyph-name="B" unicode="B" horiz-adv-x="574" 
d="M506 287q5 -15 5 -33q0 -53 -25 -92q-62 -97 -171 -137q-49 -18 -243 -53q-17 -3 -19 -3q-21 0 -26 32q-28 180 -28 409q0 119 8 217h4q86 43 119 56q89 35 157 35q72 0 124 -41q24 -19 24 -71q0 -22 -7 -44q-21 -66 -129 -176q59 -10 118 -19q69 -20 89 -80zM265 582
q1 24 -7 28q-13 5 -28 5q-57 0 -104 -50q-7 -44 -7 -173q60 24 101 74q43 54 45 116zM333 264q-19 21 -59 21q-70 0 -155 -49q-2 -70 11 -135q117 14 176 68q33 30 33 75q0 13 -6 20z" />
    <glyph glyph-name="C" unicode="C" horiz-adv-x="556" 
d="M509 126q-6 -17 -32.5 -44t-44.5 -38q-91 -57 -205 -57q-63 0 -121 42q-106 77 -106 243q0 246 199 383q83 57 157 57q69 0 133 -49q-6 -67 -41 -147l-1 -4q-44 50 -102 50q-44 0 -85 -27q-66 -43 -101 -128q-31 -76 -32 -163q0 -82 66 -110q24 -10 50 -10q56 0 115 39
q51 34 90 86q41 -54 61 -123z" />
    <glyph glyph-name="D" unicode="D" horiz-adv-x="682" 
d="M628 449q0 -156 -173 -293q-194 -154 -444 -178q-14 90 -5 251q8 142 48 400q82 65 211 65q138 0 252 -65q58 -33 84.5 -73t26.5 -107zM383 424q0 61 -33.5 96.5t-94.5 37.5q-7 0 -89 -10l-8 -1l-1 -8q-13 -106 -20 -199q-3 -67 -14 -202l-2 -18l17 7q81 33 147 96
q98 93 98 201z" />
    <glyph glyph-name="E" unicode="E" horiz-adv-x="492" 
d="M456 687q5 -28 -8 -68t-33 -62q-118 -7 -211 -17l-9 -1l-1 -9q0 -5 -14 -60q-10 -40 -3 -57l3 -7h7q13 0 47 2q45 3 68 4q61 3 98 -6q3 -15 3 -32q0 -29 -8 -65q-41 -9 -116 -17q-56 -6 -112 -14l-7 -1l-2 -7q-12 -44 -4 -120l1 -9l10 -1q19 -2 131 12q32 4 60 4
q33 0 59 -6q-1 -19 -6 -69q-6 -44 -33 -49q-73 -14 -170 -22l-168 -15q-16 3 -27.5 16.5t-11.5 30.5q5 184 25 316q24 155 78 293q142 31 354 36z" />
    <glyph glyph-name="F" unicode="F" horiz-adv-x="478" 
d="M446 631q0 -18 -10 -45q-35 -2 -125 -7q-108 -7 -147 -22l-8 -3l-2 -9q-15 -67 -15 -180v-16l16 1q76 3 197 9q13 -13 12 -45q0 -5 -6 -61q-27 -8 -85 -17q-30 -4 -60 -9q-39 -7 -56 -16l-7 -3l-1 -9q-2 -53 -9 -189q-12 -10 -48 -24q-19 -5 -36 -5q-15 0 -28 4l-18 210
q-11 126 -11 210q0 131 23 232q179 74 393 81q25 1 30 -6q2 -50 1 -81z" />
    <glyph glyph-name="G" unicode="G" horiz-adv-x="646" 
d="M560 334q31 -65 31 -150q0 -102 -57 -149q-88 -73 -214 -73q-173 0 -263 153q-53 90 -57 203q-8 202 188 335q108 73 212 73q79 0 155 -41q3 -5 0 -16q-20 -72 -58 -119q-30 18 -86 18q-47 0 -66 -9q-84 -39 -133 -128q-47 -84 -47 -181q0 -55 18 -100q24 -60 80 -68
q47 -7 93 11q68 27 78 100q-2 -1 -46 -8q-32 -5 -53 -5q-35 0 -45 18q-7 12 -7 49q0 56 26 66q51 10 125 14q63 4 126 7z" />
    <glyph glyph-name="H" unicode="H" horiz-adv-x="575" 
d="M518 666q-22 -274 -96 -680q-15 -10 -44 -9q-12 1 -55 7q-9 53 -9 128q0 21 1 69t1 70v11l-11 1q-76 7 -135 -10l-7 -2l-2 -7q-10 -78 -32 -223q-41 -16 -81 -16q-20 0 -36 5q-8 5 -10 12l25 340q19 191 62 335q32 16 82 16q18 0 38 -2q-1 -56 -12 -155q-5 -42 -8.5 -89
t-4.5 -52l-1 -9l10 -2q54 -11 124 -3l9 1l1 9q20 176 44 266q6 14 44 14q20 0 33 -4q49 -6 70 -21z" />
    <glyph glyph-name="I" unicode="I" horiz-adv-x="250" 
d="M181 687q-13 -305 -51 -687q-34 -16 -63 -16q-14 0 -48 11q-10 3 -15 12q-4 52 -4 110q0 125 19 283q8 70 35 271q22 23 59 23q12 0 36 -3z" />
    <glyph glyph-name="J" unicode="J" horiz-adv-x="520" 
d="M442 667q7 -432 -57 -588q-18 -43 -60 -74q-45 -33 -90 -33q-108 0 -208 163q-20 33 -29 66q11 12 33 26q30 19 47 19q6 0 10 -2q25 -37 62 -74q48 -49 77 -49q47 0 58 103q3 26 3 137q0 60 -9 300q-1 19 46 34q37 12 62 12q54 0 55 -40z" />
    <glyph glyph-name="K" unicode="K" horiz-adv-x="501" 
d="M446 93q-1 -17 -43 -67t-54 -47q-3 0 -32 23q-55 59 -169 169q9 -58 11 -165q0 -18 -50 -24q-33 -1 -66 -3q-26 4 -27 36q-1 15 -11 253q-7 161 -7 251q0 79 4 146q4 15 67 25q53 8 79 7q10 -8 10 -19q0 -5 -1 -9q-10 -197 -9 -228q21 25 183 196q4 3 10 3q20 0 55 -35.5
t34 -55.5q-16 -17 -206 -251q76 -72 222 -205z" />
    <glyph glyph-name="L" unicode="L" horiz-adv-x="408" 
d="M362 20q-68 -28 -164 -34q-43 -3 -169 -1q-12 0 -16 21q-13 75 -13 206q0 74 21 468q1 17 56 17q81 0 85 -26q1 -29 1 -63q0 -50 -3 -150t-3 -150q0 -100 9 -169h93q62 0 96 -5q2 -38 7 -114z" />
    <glyph glyph-name="M" unicode="M" horiz-adv-x="782" 
d="M698 25q-8 -19 -41 -30q-25 -8 -52 -8q-31 0 -34 9q-11 131 -22 356q-4 4 -6 4t-5 -4l-139 -276q-16 -26 -40 -24q-37 -3 -51 16q-10 20 -30 59q-17 32 -43 94q-27 66 -42 95q-24 -105 -35 -148q-26 -104 -44 -139q-22 -44 -66 -41q-40 -2 -49 21q25 224 131 654
q16 15 62 15q21 0 30 -5q49 -99 131 -327q127 214 227 339q38 4 55 4q42 0 53 -33q4 -15 4.5 -70t6.5 -203q5 -122 5 -201q0 -85 -6 -157z" />
    <glyph glyph-name="N" unicode="N" horiz-adv-x="659" 
d="M574 341q-8 -49 -16.5 -151.5t-18.5 -154.5q-24 -24 -55 -27q-39 42 -333 335l-6 -168q-4 -96 -23 -163q-45 -21 -59 -21q-23 0 -59 27v421q-1 125 -5 206q22 41 79 45q123 -138 347 -357q6 47 9 152q3 98 7 156q3 17 44 33q31 11 58 11q9 0 17 -1q26 -53 26 -137
q0 -34 -6 -103t-6 -103z" />
    <glyph glyph-name="O" unicode="O" horiz-adv-x="673" 
d="M604 368q0 -138 -73 -255q-87 -139 -243 -139q-85 0 -151 41q-137 85 -137 280q0 87 32 166q32 84 93 141q108 102 203 102q64 0 127 -46q149 -108 149 -290zM422 510q-16 39 -36 49q-14 7 -52 7q-74 0 -117 -62q-72 -103 -72 -206q0 -43 13 -83q18 -54 93 -88
q18 -8 39 -8q40 0 75 32q31 28 47 69q33 84 33 166q0 68 -23 124z" />
    <glyph glyph-name="P" unicode="P" horiz-adv-x="434" 
d="M377 527q-19 -72 -90 -150q-43 -47 -133 -123q0 -30 4 -90.5t4 -90.5q0 -39 -4 -63q-26 -37 -109 -34q-30 151 -38 351q-3 100 -10 301q39 16 117 47q69 26 123 26q64 0 102.5 -36.5t38.5 -100.5q0 -18 -5 -37zM251 552q-5 22 -34 22q-20 0 -49.5 -11t-42.5 -24
q-3 -28 -3 -56q0 -45 8 -88q129 94 121 157z" />
    <glyph glyph-name="Q" unicode="Q" horiz-adv-x="733" 
d="M665 418q0 -92 -44 -189q-42 -93 -111 -160q37 -54 58 -103q-30 -83 -96 -83q-7 0 -15 1q-50 15 -95 91q-68 -25 -134 -25q-60 0 -113 21q-104 41 -113 212q-8 158 65 293q76 142 216 205q51 23 109 23q72 0 136 -35q68 -37 103 -106q34 -64 34 -145zM476 412
q0 59 -22 99q-27 49 -81 53q-69 5 -163 -141q-69 -108 -69 -217q0 -67 38 -99q22 -19 50 -19q25 0 70 23q-26 62 -26 75q0 24 24 39.5t49 15.5q6 0 12 -1q20 -13 47 -40q71 94 71 212z" />
    <glyph glyph-name="R" unicode="R" horiz-adv-x="557" 
d="M494 158q-15 -39 -45 -115q-4 -3 -37 7q-102 31 -256 108q-17 -92 -15 -216q-9 -1 -123 -3q-17 85 -19 208q-3 281 56 466q154 86 263 86q65 0 110 -32q51 -36 54 -98q5 -91 -64 -187q-25 -35 -140 -157q106 -42 216 -67zM334 546q-5 42 -46 42q-31 0 -95 -31
q-3 -23 -17 -123q-11 -76 -9 -119q158 118 167 231z" />
    <glyph glyph-name="S" unicode="S" horiz-adv-x="493" 
d="M424 149q-54 -171 -292 -219l-5 -1l-2 4q-2 4 -29 37q-18 22 -18 34q0 16 28 36t86 62q53 40 65 78q10 31 0 49q-13 25 -61 47q-8 5 -77 30q-120 44 -120 119q0 32 19 75q49 111 153 183q37 25 227 107l7 3l2 -8q3 -39 11 -129l1 -5l-5 -2q-81 -32 -164 -93
q-16 -11 -68 -65q-22 -27 -22 -53q0 -13 6 -27q24 -22 86 -47q82 -33 94 -39q87 -44 87 -119q0 -28 -9 -57z" />
    <glyph glyph-name="T" unicode="T" horiz-adv-x="514" 
d="M462 701q1 -49 -4 -137q-74 -3 -154 -25q-15 -107 -22 -275l-12 -278q-57 -14 -69 -14q-26 0 -43 14q-6 53 -6 112q0 64 10 190.5t10 190.5q0 26 -1 51q-23 2 -64 -5q-45 -7 -63 -7q-19 0 -32 5q-9 67 -9 111q0 17 1 30q22 2 198 31q121 20 202 20q25 0 49 -2
q9 -10 9 -12z" />
    <glyph glyph-name="U" unicode="U" horiz-adv-x="561" 
d="M488 677q0 -241 -17 -347q-31 -193 -135 -305q-44 -47 -107 -50q-82 -3 -131 54q-98 114 -98 320q0 80 36 342q13 21 83 21q57 0 63 -16l-22 -178q-12 -104 -12 -181q0 -109 27 -169q14 -32 56 -32q11 0 18 4q71 53 93 318q4 52 10 210q9 21 77 21q50 0 59 -12z" />
    <glyph glyph-name="V" unicode="V" horiz-adv-x="568" 
d="M518 671q-57 -238 -226 -679q-20 -19 -60 -19q-24 0 -40 1q-20 -1 -34 -4q-4 3 -10 7l-4 2q-4 2 -5 3q-46 232 -141 693q54 34 117 34q19 0 38 -4q10 -16 28 -118q13 -73 23.5 -159t21.5 -161l6 -43l27 69q28 71 55 187q25 104 47 196q44 13 84 13q46 0 73 -18z" />
    <glyph glyph-name="W" unicode="W" horiz-adv-x="893" 
d="M823 649q3 -32 3 -68q0 -129 -40 -288q-33 -133 -80 -235q-44 -96 -63 -96q-2 -4 -15 -4q-24 0 -52 10q-34 13 -40 31l-54 154q-21 55 -60 148q-7 -1 -17 -23l-133 -303q-14 -19 -44 -19q-17 0 -43 8q-30 9 -38 20q-93 222 -136 514q-10 68 -10 116q0 32 3 64q0 8 39 13
q31 5 49 5q27 0 29 -7l34 -230q21 -136 57 -204q10 7 26 46q6 16 19 48q22 49 79 183q6 15 45 23q28 6 53 6q37 0 59 -11q37 -58 72 -143l60 -145q1 -4 3 -4q46 0 66 427q13 22 50 25q20 1 60 4q20 -5 19 -65z" />
    <glyph glyph-name="X" unicode="X" horiz-adv-x="627" 
d="M575 699q-27 -57 -168 -298q4 -8 85 -148q53 -91 75 -153q-24 -45 -108 -66q-26 -6 -38 5q-34 78 -115 234q-51 -127 -92 -267q-18 -19 -55 -26q-9 -2 -63 -7q-56 4 -56 39q0 11 4 22q34 92 127 320q-29 66 -82 150l-87 138q-2 3 -2 7q0 17 53 26q34 5 67 5q72 0 80 -15
q13 -25 94 -168q22 33 136 207q12 18 56 18q50 0 89 -23z" />
    <glyph glyph-name="Y" unicode="Y" horiz-adv-x="687" 
d="M633 749q-10 -37 -37 -99q-70 -159 -187 -362l-198 -341q-8 -14 -119 -27q-24 -3 -24 9q0 5 3 12q47 86 194 394q-111 106 -262 273q-3 2 -3 6q0 16 128 83q10 4 27 10q120 -144 200 -210q53 100 105 226q9 22 21 28t38 6q18 0 114 -8z" />
    <glyph glyph-name="Z" unicode="Z" horiz-adv-x="508" 
d="M432 142q17 1 17 -46q0 -56 -29 -85q-26 -13 -76 -18.5t-150 -15.5q-28 -3 -70 2q-57 7 -61 20q-10 73 -10 64q0 14 5 25q22 50 100 243q83 206 84 217q-35 2 -100 -9q-70 -12 -101 -12q-19 0 -21 5q-23 58 -20 119q-1 7 -1 12q0 15 11 20q134 26 357 26q31 0 40 -5
q13 -7 16 -32q4 -35 -70 -201l-137 -303q-17 -38 -17 -42q0 -5 6 -5q-4 0 25 3q120 13 202 18z" />
    <glyph glyph-name="bracketleft" unicode="[" horiz-adv-x="330" 
d="M6 376q-1 380 7 404q8 23 108 32q101 9 113 -15q17 -34 -3 -123q-101 13 -101 -12q0 -620 -13 -603q14 -18 75 -18q59 10 57 24q12 -4 17 -80q0 -38 -21 -38q-8 0 -45 -6q-53 -8 -77 -9q-98 10 -107 34q-9 27 -10 410z" />
    <glyph glyph-name="backslash" unicode="\" horiz-adv-x="589" 
d="M552 -12l-46 -30q-30 -17 -51 -17q-12 0 -24 4q-164 242 -229 343q-151 236 -204 365q1 9 21 31q29 31 88 32q280 -434 445 -728z" />
    <glyph glyph-name="bracketright" unicode="]" horiz-adv-x="315" 
d="M231 -22q-8 -24 -105 -12q-25 2 -73 10q-38 6 -46 6q-21 0 -18 57q2 57 15 61q2 1 58 -24q51 -23 66 -5q-14 -17 -14 603q0 25 -103 12q-21 89 -4 123q13 24 116 15q104 -9 112 -32q8 -24 7 -404q-1 -383 -11 -410z" />
    <glyph glyph-name="asciicircum" unicode="^" horiz-adv-x="373" 
d="M399 816q0 -9 -28 -32.5t-37 -27.5q-19 21 -72 60q-32 31 -54 40q-58 -33 -134 -107q-29 26 -51.5 42t-22.5 25q0 2 94 82q58 50 100 65q5 1 12 0q28 -9 112 -71q81 -60 81 -76z" />
    <glyph glyph-name="underscore" unicode="_" horiz-adv-x="600" 
d="M526 -124q-155 -10 -260 -10q-86 0 -238 6q-11 3 -29 17q0 20 4 25q13 11 25 21l224 20q95 7 224 11q72 2 72 -27q0 -11 -9 -32q-11 -24 -13 -31z" />
    <glyph glyph-name="grave" unicode="`" horiz-adv-x="268" 
d="M287 816q0 -9 -22 -25.5t-30 -13.5q-93 33 -119 43q-78 31 -114 58q-1 1 -1 3q0 14 34.5 48.5t52.5 34.5t114 -69q85 -61 85 -79z" />
    <glyph glyph-name="a" unicode="a" horiz-adv-x="544" 
d="M495 10q1 -23 -101 -40q-25 -6 -31 1q-2 3 -8 28q-11 45 -31 166l-2 12l-11 -3q-31 -6 -127 -28q-11 -4 -22 -43q-14 -56 -34 -122q-64 -4 -124 26l-2 1l1 3q-5 42 98 363q100 289 121 298q17 6 38 6q23 0 51 -7q109 -201 184 -661zM294 275l-1 9q-2 15 -37 168l-9 39
l-12 -39q-21 -69 -44 -183l-3 -15l16 3q23 4 82 15z" />
    <glyph glyph-name="b" unicode="b" horiz-adv-x="555" 
d="M482 280q9 -27 9 -53q0 -101 -129 -187q-106 -71 -259 -71q-38 0 -75 5q-29 105 -29 256q0 193 31 411q44 18 132 53q80 30 146 30q69 0 125 -36q42 -27 42 -93q0 -116 -143 -253q59 -5 85 -13q45 -14 65 -49zM313 532q3 17 -3 34q-6 21 -22 22q-67 3 -150 -46
q-12 -105 -10 -178q54 12 110 57q65 53 75 111zM324 214q-3 8 -12 14q-17 12 -45 12q-45 0 -141 -47q-2 -27 -2 -49q0 -45 7 -74q5 -2 11 -2q24 0 77 20q75 28 100 81q13 27 5 45z" />
    <glyph glyph-name="c" unicode="c" horiz-adv-x="492" 
d="M472 667q-2 -31 -13 -78q-8 -34 -16 -55q-64 26 -96 26q-22 0 -43 -8q-76 -30 -122.5 -102t-46.5 -155q0 -111 74 -145q37 -17 86 -17q36 0 66 12q14 6 60 27q-2 -20 -6 -42q-16 -89 -39 -108q-48 -30 -110 -30q-120 0 -194 78.5t-74 199.5q0 94 41 186q53 118 196 195
q65 35 133 35q51 0 104 -19z" />
    <glyph glyph-name="d" unicode="d" horiz-adv-x="533" 
d="M455 575q26 -41 26 -97q0 -86 -54 -195q-41 -82 -76 -121q-129 -142 -314 -177q-17 -1 -22 18q0 1 -4 34q-12 112 -12 271q0 84 9 351q157 35 221 35q150 0 226 -119zM233 567q-40 0 -92 -21l-5 -2l-2 -6q-14 -81 -14 -200q0 -112 7 -175l2 -18l15 10q70 47 122 138.5
t52 173.5q0 101 -85 100z" />
    <glyph glyph-name="e" unicode="e" horiz-adv-x="478" 
d="M452 41q-109 -33 -209 -45q-35 -3 -141 -16q-24 -3 -55 9q-36 14 -38 36q-11 118 -11 250q0 178 25 377q4 28 31 29q187 8 349 -9q15 -37 15 -56q0 -6 -5 -50q-54 -16 -139 -17q-97 -2 -134 -8q-5 -73 -5 -82q0 -41 10 -54q36 -1 116 1q77 2 112 -6q7 -28 7 -58t-7 -55
q-95 -6 -241 -16q0 12 -2 -69q-1 -53 4 -64q50 0 146 7l148 11q25 -48 24 -115z" />
    <glyph glyph-name="f" unicode="f" horiz-adv-x="463" 
d="M432 718q4 -14 4 -36q0 -70 -29 -105q-68 -3 -240 -18l-9 -1v-9q-3 -21 -10 -63q-2 -45 -7 -105l3 -8l8 1q18 2 127 8q47 2 82 -6q6 -24 6 -54q0 -22 -3 -47q-38 -9 -114 -18q-23 -3 -109 -15l-7 -1l-1 -8q-7 -52 -8 -144q-1 -86 -5 -92q-9 -16 -48 -16q-56 0 -67 18
q-5 97 -5 179q0 286 63 489q213 47 369 51z" />
    <glyph glyph-name="g" unicode="g" horiz-adv-x="609" 
d="M532 44q-85 -91 -259 -81q-91 5 -165 81q-67 69 -93 163q-15 54 -15 104q0 153 106 266q128 137 355 137q18 0 15 -16q2 -20 -17 -78q-21 -62 -36 -66q-71 -19 -133 -60q-70 -46 -102 -103q-48 -85 -48 -169q0 -57 33 -88t90 -31q71 0 146 48q14 16 14 37q0 12 -6 19
q-96 -16 -127 -16q-27 0 -32 9q-8 44 -8 63q0 44 28 60q122 22 202 22q21 0 42 -1q27 -56 27 -144q0 -72 -17 -156z" />
    <glyph glyph-name="h" unicode="h" horiz-adv-x="557" 
d="M496 633q-22 -157 -36 -366l-25 -367q-30 -6 -64 -6q-33 0 -70 6q-2 170 13 316q-30 5 -61 5q-35 0 -72 -6q-1 -4 -8.5 -4t-8.5 -4l-38 -215q-15 -4 -36 -4q-39 0 -87 14q-2 123 14 249q19 154 109 467q3 9 54 18q44 8 64 8q24 0 22 -8q-26 -133 -60 -337q42 -2 72 -2
q48 0 68 5q15 109 47 266q48 26 103 27q6 -18 0 -62z" />
    <glyph glyph-name="i" unicode="i" horiz-adv-x="259" 
d="M198 616q-20 -112 -39 -305q-21 -220 -36 -305q-38 -32 -104 -28q-8 6 -18 32q0 342 42 667l50 10q36 7 59 7q54 0 54 -40q0 -16 -8 -38z" />
    <glyph glyph-name="j" unicode="j" horiz-adv-x="545" 
d="M468 539q4 -34 4 -78q0 -123 -23 -236.5t-59 -169.5q-53 -83 -147 -80q-138 4 -244 160q7 32 37 56t63 26q15 -19 44 -58q38 -49 77 -51q27 -2 49 35q18 29 24 62q20 107 20 206q0 138 -38 252q0 35 75 35q22 0 53 -6q42 -7 45 -19q7 -26 20 -134z" />
    <glyph glyph-name="k" unicode="k" horiz-adv-x="564" 
d="M520 552q-85 -71 -259 -227l114 -132q69 -79 102 -137q7 -22 -42 -46q-44 -22 -69 -21q-87 81 -205 241q-5 -50 -15 -149q-9 -81 -25 -102q-35 -4 -55 -4q-63 0 -68 31q9 262 14 341q12 183 38 333q42 8 77 8q55 0 57 -23q1 -10 1 -35q0 -8 -14 -203q80 72 115 100
q77 62 144 98q6 1 12 1q21 0 50 -25t29 -45q0 -3 -1 -4z" />
    <glyph glyph-name="l" unicode="l" horiz-adv-x="398" 
d="M341 141q10 -2 10 -34q0 -21 -5 -53q-7 -41 -17 -45q-104 -23 -230 -22q-32 0 -56 17q-28 20 -29 50q-14 307 -14 375q0 122 10 224q2 17 49 29q36 8 63 8q60 0 57 -27q-31 -256 -31 -392q0 -70 7 -122q46 -9 123 -9q29 0 63 1z" />
    <glyph glyph-name="m" unicode="m" horiz-adv-x="856" 
d="M793 22q0 -22 -33 -33q-24 -8 -51 -8q-29 0 -36 8q-11 6 -36 145q-22 126 -35 241q-6 -13 -85 -179q-54 -115 -93 -172q-6 -9 -21 -7l-30 4q-30 0 -38 45q-22 122 -70 321q-14 -58 -62 -189l-67 -186q-11 -35 -41 -35q-15 0 -40 3q-31 3 -41 3q-15 10 -15 29q0 9 8 38
q63 227 209 613q23 12 52 12q32 0 50 -16q70 -203 95 -298h10l104 197q62 118 76 126q7 11 41 11q25 0 39 -7q31 -136 61 -341z" />
    <glyph glyph-name="n" unicode="n" horiz-adv-x="681" 
d="M626 632l-59 -393q-39 -230 -59 -258q-9 -2 -37 -14q-22 -9 -38 -9q-9 0 -17 2q-59 56 -102 132q-26 48 -78 145q-32 59 -64 124l-35 -353q-23 -18 -49 -24q-20 -4 -52 -3q-36 1 -36 61q1 113 19 312q23 249 26 309q8 11 20 15l27 9q22 6 30 6q15 0 34 -15
q110 -177 240 -430h11q10 80 71 432q18 2 61 17q40 14 58 14q32 0 32 -46q0 -12 -3 -33z" />
    <glyph glyph-name="o" unicode="o" horiz-adv-x="730" 
d="M475 52q-116 -91 -224 -90q-123 1 -175 49q-77 70 -77 205q0 61 17 127q31 121 143 222q108 97 233 126q26 6 52 6q62 0 112 -30t75 -85q34 -74 34 -161q0 -220 -190 -369zM527 461q0 21 -9 42q-19 48 -78 48q-77 0 -163.5 -68t-112.5 -143q-16 -47 -14 -99
q3 -70 50 -107q26 -20 61 -20q13 0 77 15q55 13 118 109q73 111 71 223z" />
    <glyph glyph-name="p" unicode="p" horiz-adv-x="473" 
d="M302 364q-34 -25 -156 -96q3 -55 -6 -264q-45 -37 -71 -37q-15 0 -36 7q-28 118 -31 294q-3 203 27 352q132 75 253 75q69 0 110 -33q44 -37 44 -105q0 -96 -134 -193zM293 534q3 8 3 15q0 21 -32 21q-51 0 -113 -32q-11 -69 -11 -127q41 15 87 49q54 39 66 74z" />
    <glyph glyph-name="q" unicode="q" horiz-adv-x="668" 
d="M462 43q22 -41 57 -119q4 -17 -60.5 -45t-88.5 -28q-13 0 -18 6q-14 22 -59 119q-21 -4 -46 -4q-120 0 -177 69q-69 84 -69 201q0 49 16 96q44 129 124 226q95 114 210 139q102 6 155 -24q93 -83 93 -224q0 -120 -33 -216q-31 -87 -104 -196zM434 505q-20 31 -47 28
q-95 -11 -157 -101q-57 -82 -57 -182q0 -69 30 -95q17 -15 35 -15q5 0 10 1q-12 35 -20 95q-3 23 38 47q38 22 65 22q19 0 27 -11q14 -19 41 -88q57 100 57 204q0 60 -22 95z" />
    <glyph glyph-name="r" unicode="r" horiz-adv-x="700" 
d="M648 161q3 -31 -40 -91q-39 -55 -56 -63q-189 42 -403 183q-11 -40 -10 -105q1 -97 0 -107q-55 -15 -85 -15q-29 0 -49 11q-4 57 -4 116q0 230 71 527q55 44 141 69q81 24 157 24q183 0 183 -141q0 -36 -10 -63q-56 -153 -221 -254q35 -26 164 -59q117 -30 162 -32z
M394 530q0 24 -33 37q-26 10 -54 10q-16 0 -28 -3q-55 -13 -74 -32q-9 -9 -21 -63q-14 -65 -17 -145q80 21 147 71q80 60 80 125z" />
    <glyph glyph-name="s" unicode="s" horiz-adv-x="425" 
d="M376 646l-3 -5q-185 -79 -200 -191q-1 -10 -1 -23q0 -49 44 -93q28 -23 84 -70q69 -60 61 -140q-10 -103 -86 -142q-59 -30 -128 -30q-53 0 -98 19l-3 4q-4 11 -10 35q-3 24 12 39l5 1q23 -9 50 -9q46 0 87 23q24 20 24 59q0 16 -4 32q-20 33 -61 73l-70 66
q-85 84 -80 171q6 103 124 192q94 70 221 107q6 2 14.5 -1t11.5 -3l5 1l1 -5q9 -46 0 -110z" />
    <glyph glyph-name="t" unicode="t" horiz-adv-x="526" 
d="M479 698q2 -31 2 -64q0 -32 -2 -64q-40 -1 -118 -5q-13 -1 -38 -4q-5 -4 -9 -50q-17 -174 -58 -530q-11 -10 -41 -7l-50 5q-3 3 -6 4q-6 75 -6 187q0 208 10 358l2 30l-68 2q-16 0 -55 1q-43 2 -40 29l13 106q118 6 248 6q104 0 216 -4z" />
    <glyph glyph-name="u" unicode="u" horiz-adv-x="635" 
d="M571 676q5 -148 -24 -307q-38 -206 -120 -324q-57 -82 -172 -82q-62 0 -110 26q-146 80 -146 298q0 75 18 186l28 172q71 36 129 43q22 3 24 1q6 -3 3 -20q-10 -61 -30 -182q-16 -102 -16 -182q0 -69 13 -137q4 -20 21 -36t37 -19q57 -8 87 61q43 97 67 239q3 16 40 249
q51 21 102 21q28 0 49 -7z" />
    <glyph glyph-name="v" unicode="v" horiz-adv-x="655" 
d="M619 683q-36 -146 -151 -404q-119 -267 -167 -297q-13 -11 -79 -11q-55 0 -63 13q-65 108 -103 252q-29 109 -52 273q-2 26 -4 78q-1 39 4 67q7 11 63 24q42 10 50 10q20 0 32 -13q-10 -307 93 -542q115 215 161 334l93 240q7 8 26 8q38 0 91 -22q0 -4 6 -10z" />
    <glyph glyph-name="w" unicode="w" horiz-adv-x="955" 
d="M884 686q-8 -260 -21 -359q-27 -206 -106 -333q-28 -37 -90 -37q-25 0 -37 9q-68 51 -109 142q-14 32 -56 164q-123 -307 -243 -307q-70 0 -129 90q-53 108 -73 265q-7 52 -21 286q-1 20 83 50q68 24 106 30q15 0 14 -10q-10 -130 -10 -206q0 -162 33 -274q7 -14 18 -14
t20 14q119 191 169 372q4 14 55 14q64 0 68 -14q18 -64 55 -192q34 -112 62 -147q5 -2 9 -2q11 0 20 31q47 155 56 461q0 12 39 12q84 0 88 -45z" />
    <glyph glyph-name="x" unicode="x" horiz-adv-x="618" 
d="M576 653q-139 -180 -193 -274l82 -156q59 -116 73 -162q-15 -14 -41 -24q-36 -13 -43 -18q-27 -9 -40 -9q-18 0 -37 28q-36 54 -103 209q-56 -186 -111 -300q-65 1 -83 4q-53 9 -58 37q36 131 127 377q-52 87 -149 253q0 24 57 45q49 18 82 18q6 0 9 -1q23 -5 65 -87
q21 -40 65 -130q33 74 103 207q69 8 124 8q31 0 58 -3q16 -4 16 -13q0 -4 -3 -9z" />
    <glyph glyph-name="y" unicode="y" horiz-adv-x="703" 
d="M679 736q-140 -174 -292 -403q-17 -26 -265 -414q-11 -10 -24 -10q-15 0 -38 15q-31 20 -36 22l-23 23q28 63 98 182l118 199l-216 283v18q60 35 81 46q44 22 85 35q97 -117 153 -242q95 164 166 273q33 -1 97 -4q52 -4 96 -23z" />
    <glyph glyph-name="z" unicode="z" horiz-adv-x="476" 
d="M424 672q5 -48 -208 -526q-15 -33 -16 -38q-2 -9 5 -9q4 1 26 4l45 6q17 1 62 3q17 1 17 -45q0 -56 -29 -85q-14 -8 -28 -15q-5 -1 -104 -12q-27 -3 -70 2q-56 7 -60 20q-11 73 -11 64q0 12 6 25q23 50 100 252q81 212 83 230q-27 1 -103 -19q-80 -22 -107 -22
q-10 0 -11 3q-24 59 -21 120q-4 25 11 31q246 48 357 48q31 0 40 -5q13 -7 16 -32z" />
    <glyph glyph-name="braceleft" unicode="{" 
d="M-30 508q91 22 93 85q0 2 -13 83q-16 117 -16 122q0 42 17 89t41 68q21 19 69 25q47 6 75 -7q21 -14 41 -38t-53 -75l-29 5q-29 -19 -35 -102q-4 -56 1 -99q3 -17 1 -46q-3 -40 -3 -47q1 -48 -31 -67q-11 -7 -71 -23v-2q3 -1 7 -2q37 -10 50 -24q15 -17 19 -57
q10 -110 9 -116q-2 -16 1 -61q4 -52 4 -60q0 -91 68 -81q13 4 43 18q21 10 30 9q5 -7 10 -30q6 -27 7 -28q8 -21 5 -38q-1 -6 -2 -8q-2 -1 -2 2q-41 -27 -122 -19q-67 6 -123 80q-25 33 -25 111q0 22 14 100q2 10 8 45q5 27 5 44q0 99 -100 71z" />
    <glyph glyph-name="bar" unicode="|" 
d="M287 760q-8 -397 -31 -894q-21 -21 -39 -21q-8 0 -29 14q-6 4 -10 16q-2 68 -2 143q0 163 12 368q5 91 21 353q14 30 36 30q8 0 22 -4z" />
    <glyph glyph-name="braceright" unicode="}" horiz-adv-x="484" 
d="M419 419q-118 28 -118 -71q0 -17 6 -44q7 -35 8 -45q17 -78 17 -100q0 -78 -29 -111q-66 -74 -146 -80q-96 -8 -144 19q0 -3 -2 -2q-2 2 -3 8q-3 17 6 38q1 1 8 28q7 23 12 30q11 1 36 -9q35 -14 51 -18q80 -10 80 81q0 8 5 60q4 45 1 61q-1 6 11 116q4 40 22 57
q16 14 59 24q5 1 9 2v2q-71 16 -84 23q-39 19 -38 67q0 7 -3 47q-2 29 1 46q7 43 1 99q-7 83 -41 102l-34 -5q-87 51 -63 75q23 24 48 38q33 13 90 7q56 -6 82 -25q28 -21 48 -68q19 -47 19 -89q0 -5 -19 -122q-14 -81 -14 -83q2 -63 110 -85z" />
    <glyph glyph-name="asciitilde" unicode="~" horiz-adv-x="368" 
d="M394 821q-37 -80 -106 -79q-33 0 -78.5 54t-79.5 55q-69 1 -121 -45q-11 13 -9 45q36 83 128 92q34 3 79 -47q47 -53 78 -53q60 -1 107 32q6 -1 6 -18q0 -13 -4 -36z" />
    <glyph glyph-name="bullet" horiz-adv-x="272" 
d="M178 290q-29 -34 -79 -34q-20 0 -34 5q-48 17 -63 54q-1 8 -1 15q0 42 26 69q27 45 82 45q51 0 69 -45q13 -32 13 -60q0 -27 -13 -49z" />
    <glyph glyph-name="trademark" horiz-adv-x="645" 
d="M565 378q-6 -18 -44 -18q-14 0 -16 4q-5 62 -11 169q-1 2 -2 2t-3 -2l-40 -81q-24 -48 -26 -50q-7 -12 -18 -12q-18 -1 -24 8t-15 28q-22 51 -41 90q-22 -112 -37 -136q-10 -21 -31 -20q-19 -1 -23 10q11 106 62 311q4 4 21 6t22 -2q23 -47 63 -155q60 102 108 161
q17 2 25 2q20 0 26 -16q2 -7 2 -34q0 -14 4 -133q3 -82 -2 -132zM228 697q2 -15 2 -30q0 -16 -2 -31q-24 0 -73 -4q-4 -2 -6 -24l-27 -252q-4 -4 -20 -4l-23 3q-2 1 -3 2q-9 107 2 259l1 14l-33 1q-47 1 -45 15l6 50q56 3 118 3q50 0 103 -2z" />
    <glyph glyph-name="Ydieresis" horiz-adv-x="642" 
d="M500 827q-24 -28 -64 -28q-14 0 -28 4q-39 15 -51 44q-1 8 -1 15q0 32 21 53q22 38 67 38q41 0 56 -38q11 -27 11 -48q0 -22 -11 -40zM261 917q4 -18 4 -35q0 -93 -86 -84q-36 12 -48 44q-3 11 -3 21q0 31 24 57t55 26q41 0 54 -29zM633 749q-10 -37 -37 -99
q-70 -159 -187 -362l-198 -341q-8 -14 -119 -27q-24 -3 -24 9q0 5 3 12q47 86 194 394q-111 106 -262 273q-3 2 -3 6q0 16 128 83q10 4 27 10q120 -144 200 -210q53 100 105 226q9 22 21 28t38 6q18 0 114 -8z" />
    <glyph glyph-name="exclamdown" unicode="&#xa1;" horiz-adv-x="300" 
d="M242 660q1 -8 1 -15q0 -31 -21 -53q-22 -37 -67 -37q-41 0 -56 37q-11 27 -11 49t11 40q24 27 64 27q14 0 28 -3q39 -15 51 -45zM207 482q0 -156 -11 -249q-8 -66 -31 -240l-50 -10q-36 -7 -59 -7q-55 0 -55 40q0 16 9 38q40 224 74 432q38 32 104 28q4 -3 19 -32z" />
    <glyph glyph-name="cent" unicode="&#xa2;" horiz-adv-x="447" 
d="M408 201q-21 -60 -129 -89l-15 -87q-34 -12 -59 -12q-54 0 -68 26q-2 33 -1 73q-115 47 -115 184q0 88 46 160.5t130 113.5l11 72q24 23 60 23q22 -2 63 -5l8 -1l-4 -72q31 -10 55 -27l4 -6q-5 -44 -31 -99l-4 -9l-7 6q-38 28 -70 28q-33 0 -60 -16q-92 -53 -93 -187
q0 -50 43 -67q17 -5 34 -5q87 0 145 80l5 7l6 -7q33 -47 46 -84z" />
    <glyph glyph-name="sterling" unicode="&#xa3;" horiz-adv-x="591" 
d="M498 195q-8 -2 -58 -51q-36 -37 -97 -14q-64 24 -107 26q28 36 26 76q5 42 -19 91v1q99 8 162 49q26 16 24 68q-1 21 -8 33q-7 14 -19 9q-176 -66 -208 -43q-42 31 -54 77q-23 140 129 117q64 -29 104 -62q38 29 68 58q-19 36 -67 67q-46 28 -124 34q-136 9 -203 -101
q-24 -40 -13 -127q26 -60 41 -87q-49 -12 -65 -20q-17 -7 13 -99q39 10 109 17q24 -46 21 -70q6 -47 -31 -81q-11 -29 -59 -36q-9 -105 9 -124q7 -8 71 18q69 29 104 15q119 -47 257 17z" />
    <glyph glyph-name="currency" unicode="&#xa4;" horiz-adv-x="601" 
d="M168 367q40 32 85 36q33 3 60 -15q28 -19 28 -50q0 -45 -39 -75q-40 -31 -86 -34q-88 -7 -88 62q0 44 40 76zM436 388q0 44 -30 74q39 38 35 46q-6 17 -25 40q-23 27 -38 27q-17 0 -77 -73q-4 0 -2 0q-78 0 -148 -42q-69 65 -83 65q-13 1 -39 -28q-25 -26 -26 -38
q-1 -5 73 -62q-52 -57 -52 -121q0 -50 39 -79q-63 -54 -49 -66q70 -59 72 -59q10 -1 32 26q46 57 57 68q70 3 133 41q81 -76 91 -74q14 4 39 22q29 20 34 36q7 18 -86 80q50 55 50 117z" />
    <glyph glyph-name="yen" unicode="&#xa5;" 
d="M118 415q-81 103 -182 206q-3 2 -3 6q0 14 115 74q9 4 24 9q108 -129 163 -285q64 186 111 299q8 20 18.5 25.5t34.5 5.5q16 0 102 -7q-9 -33 -33 -89q-60 -127 -116 -228q48 2 102 3q80 2 80 -29q0 -11 -10 -33q-13 -25 -15 -32q-114 -7 -203 -10l-1 -58q65 3 140 5
q80 2 80 -29q0 -11 -10 -33q-13 -25 -15 -32q-109 -7 -196 -10l-2 -145q-7 -12 -107 -24q-22 -3 -22 8q0 5 3 11q3 59 -1 149q-90 1 -231 7q-12 3 -32 17q0 21 4 27q15 11 28 21l227 20q-2 31 -4 66q-86 1 -214 6q-12 3 -32 17q0 21 4 27q15 11 28 21z" />
    <glyph glyph-name="brokenbar" unicode="&#xa6;" 
d="M202 -159l-22 18v348l20 28l41 3l20 -34l-10 -331l-17 -30zM202 345l-22 19v382l20 31l41 2l20 -37l-10 -362l-17 -32z" />
    <glyph glyph-name="section" unicode="&#xa7;" 
d="M188 225l1 4q149 99 144 199q-1 9 -3 20q-5 28 -26 51l-2 -4q-148 -98 -144 -198q1 -9 3 -21q5 -27 27 -51zM199 566q-3 2 -7 4q-70 41 -76 112q-7 91 53 137q46 36 106 47q47 9 89 -1l3 -3q5 -9 14 -29q7 -20 -4 -36l-4 -1q-21 4 -45 0q-40 -8 -72 -34q-18 -22 -12 -56
q3 -14 9 -27q23 -26 65 -54q37 -24 72 -46q87 -60 97 -136q11 -91 -78 -188q-50 -54 -117 -96q4 -2 7 -4q70 -42 76 -113q8 -91 -52 -137q-47 -36 -107 -47q-46 -8 -89 1l-3 3q-5 9 -14 29q-7 20 4 36l4 1q22 -4 45 1q40 7 72 34q18 21 12 55q-3 14 -9 27q-23 26 -65 54
q-37 24 -71 46q-88 60 -98 137q-11 91 78 187q50 54 117 97z" />
    <glyph glyph-name="dieresis" unicode="&#xa8;" horiz-adv-x="360" 
d="M374 818q-24 -27 -64 -27q-14 0 -28 3q-39 15 -51 45q-1 7 -1 14q0 32 22 54q22 37 66 37q41 0 56 -37q11 -27 11 -49t-11 -40zM135 917q4 -18 4 -35q0 -93 -86 -84q-51 17 -51 65q0 31 24 57t55 26q42 0 54 -29z" />
    <glyph glyph-name="copyright" unicode="&#xa9;" horiz-adv-x="669" 
d="M600 372q0 -138 -72 -254q-87 -139 -244 -139q-83 0 -149 42q-136 85 -136 278q0 190 124 307q107 101 202 101q63 0 127 -46q148 -106 148 -289zM507 190q33 77 33 162q0 131 -74 221q-59 72 -145 72q-89 0 -156 -70q-107 -113 -107 -272q0 -65 19 -125q11 -36 58 -78
q43 -37 83 -55q21 -9 48 -9q62 0 139.5 49t101.5 105zM450 192q-12 -30 -51 -54q-61 -38 -137 -38q-78 0 -122 72q-29 48 -29 118q0 106 52 177q85 116 189 116q43 0 85 -32q-5 -55 -27 -99l-1 -2q-29 33 -68 33q-30 0 -57 -18q-87 -57 -88 -194q-1 -54 44 -73q16 -7 33 -7
q72 0 137 83q27 -36 40 -82z" />
    <glyph glyph-name="ordfeminine" unicode="&#xaa;" 
d="M373 415q-6 -11 -44 -19q-13 -4 -16 0q-1 2 -4 14q-5 23 -16 85l-1 6l-5 -2q-16 -3 -57 -14q-14 -4 -19 -22q-7 -28 -17 -62q-33 -2 -63 13l-1 1l1 1q9 28 58 190q31 98 53 146q8 3 19 3q12 0 26 -4q51 -116 86 -336zM278 550v5q-1 8 -19 85l-5 20l-6 -20
q-10 -35 -22 -93l-2 -7l9 1q11 2 41 8z" />
    <glyph glyph-name="guillemotleft" unicode="&#xab;" 
d="M22 372q-15 -35 -11 -68q6 -44 91 -138q79 -86 103 -94q21 -6 44 22q25 30 -29 62q-34 29 -85 81q-48 56 -48 78q0 26 30 68q29 27 77 68q36 35 39 67q-4 26 -11 42q-7 17 -13 13q-146 -104 -187 -201zM233 372q-15 -35 -11 -68q6 -44 91 -138q79 -86 103 -94
q21 -6 44 22q25 30 -29 62q-34 29 -85 81q-48 56 -48 78q0 26 30 68q29 27 77 68q36 35 39 67q-4 26 -11 42q-7 17 -13 13q-146 -104 -187 -201z" />
    <glyph glyph-name="sfthyphen" unicode="&#xad;" 
d="M448 215q-147 -19 -218 -19q-33 0 -98 1t-98 1q-12 3 -32 19q-2 26 4 35l24 26l179 30q48 8 178 19q12 1 23 1q57 0 57 -35q0 -15 -9 -39q-9 -27 -10 -39z" />
    <glyph glyph-name="registered" unicode="&#xae;" horiz-adv-x="698" 
d="M630 372q0 -138 -73 -254q-87 -139 -243 -139q-83 0 -150 42q-136 84 -136 278q0 85 32 166q33 85 92 141q107 101 203 101q62 0 126 -46q149 -107 149 -289zM536 190q33 78 33 162q0 133 -73 221q-59 72 -146 72q-88 0 -155 -70q-108 -114 -108 -272q0 -64 20 -125
q12 -36 59 -78q42 -37 82 -55q21 -9 47 -9q61 0 139 49t102 105zM491 244q-10 -25 -28 -72q-2 -1 -23 5q-63 19 -158 67q-11 -57 -10 -134q-5 -1 -75 -2q-11 51 -12 129q-2 174 35 287q94 53 162 53q40 0 68 -19q31 -22 33 -60q3 -57 -39 -116q-15 -21 -86 -97
q65 -26 133 -41zM392 483q-4 26 -28 26q-20 0 -59 -19q-2 -14 -11 -76q-7 -47 -5 -74q97 73 103 143z" />
    <glyph glyph-name="macron" unicode="&#xaf;" 
d="M534 803q-173 -12 -290 -12q-96 0 -266 7q-12 4 -32 19q0 24 4 30q15 12 28 24l251 23q106 8 250 13q80 3 80 -32q0 -12 -10 -36q-13 -28 -15 -36z" />
    <glyph glyph-name="degree" unicode="&#xb0;" 
d="M381 694q0 -45 -34 -85q-44 -58 -128 -65q-30 0 -55 13q-52 28 -52 93q0 28 12 54q12 28 34 47q51 47 113 51q30 8 57 -9q53 -28 53 -99zM299 642q9 18 9 36q0 30 -19 49q-16 11 -35 8q-21 0 -43 -15q-25 -17 -25 -53q0 -15 6 -27q3 -8 14 -18q10 -8 21 -12q5 -3 20 -1
q19 4 32.5 12t19.5 21z" />
    <glyph glyph-name="plusminus" unicode="&#xb1;" horiz-adv-x="437" 
d="M363.5 390.5q-2.5 -9.5 -11.5 -14.5q-61 -14 -102 -18q-7 -41 -15 -92q-38 -31 -104 -28q-6 4 -19 33q-1 37 -5 92q-27 3 -81 10q-27 22 -27 64q0 21 9 62q58 3 101 6q4 37 14 113q4 1 46 10q32 7 52 7q59 0 59 -59q0 -2 -2 -19l-6 -50q36 -2 79 -6q20 -36 20 -68
q0 -12 -2.5 -22.5t-5 -20zM330.5 87.5q-2.5 -9.5 -11.5 -14.5q-84 -20 -127 -20q-32 0 -165 17q-27 22 -27 64q0 21 9 62q108 7 190 7q69 0 119 -5q21 -36 21 -68q0 -12 -3 -22.5t-5.5 -20z" />
    <glyph glyph-name="uni00B2" unicode="&#xb2;" 
d="M408 468q1 -15 -20 -45q-19 -27 -28 -31q-94 21 -200 90q-2 2 -2 14t3 31q3 25 8 27q41 11 73 35q40 30 40 62q0 12 -17 19q-12 5 -26 5q-16 0 -39 -15q-15 -9 -25 -9q-8 0 -25 19t-17 27q0 2 1 3q49 36 115 40h18q94 0 94 -69q0 -16 -5 -31q-28 -77 -110 -127
q18 -12 82 -29q58 -15 80 -16z" />
    <glyph glyph-name="uni00B3" unicode="&#xb3;" 
d="M350 547q4 -13 4 -26q0 -49 -63 -92q-45 -30 -107 -33q-10 0 -22.5 12t-12.5 23q0 14 28 13q14 0 37 7q47 15 60 42q6 13 3 22q-2 4 -7 7q-13 10 -30 10q-8 0 -29.5 -6l-21.5 -6q-13 9 -13 38q0 15 7 22q27 9 53 36.5t30 54.5q2 9 -1 17.5t-10 10t-11 1.5q-24 0 -51 -14
q-5 -3 -37 -20q-6 -3 -10 17q-3 15 -3 25q0 14 4 18q66 40 116 40q34 0 62 -18q21 -13 21 -46q0 -57 -70 -124q29 -3 42 -7q22 -6 32 -24z" />
    <glyph glyph-name="acute" unicode="&#xb4;" horiz-adv-x="266" 
d="M285 878q-45 -34 -233 -101q-7 -3 -29.5 13.5t-22.5 25.5q0 18 85 79q96 69 114 69t52.5 -34.5t34.5 -48.5q0 -2 -1 -3z" />
    <glyph glyph-name="periodcentered" unicode="&#xb7;" 
d="M291 419q4 -18 4 -34q0 -88 -82 -79q-48 16 -48 61q0 30 23 54.5t52 24.5q40 0 51 -27z" />
    <glyph glyph-name="cedilla" unicode="&#xb8;" 
d="M128 -96q50 -15 80 -8q33 11 36 32q-2 13 -27 23q-40 8 -56 14q-2 13 -2 24q4 12 11 31q22 -1 32 1q12 -2 19.5 -2.5t0.5 -22.5q1 -10 5 -13q11 -8 36.5 -16t33.5 -14q16 -10 19 -28q-6 -34 -55 -56q-42 -18 -97 -16q-25 2 -38 7q-9 21 2 44z" />
    <glyph glyph-name="uni00B9" unicode="&#xb9;" 
d="M312 730q-8 -55 -17 -157q-10 -110 -16 -157q-17 -17 -47 -15q-3 3 -8 17q2 99 3 123q2 69 7 122q0 3 -3 3q-4 0 -16 -5t-17 -5q-2 0 -3 1q-10 35 -9 48q1 7 26 29q19 17 31 27q6 2 17 2q50 0 52 -33z" />
    <glyph glyph-name="ordmasculine" unicode="&#xba;" horiz-adv-x="504" 
d="M378 593q0 -64 -34 -118q-40 -65 -112 -65q-40 0 -70 19q-64 40 -64 130q0 41 15 77q15 39 43 66q50 47 94 47q30 0 59 -21q69 -50 69 -135zM275 640q-6 14 -13 18q-4 2 -18 2q-26 0 -41 -23q-26 -37 -26 -74q0 -16 5 -31q6 -19 32 -32q7 -2 15 -2q14 0 26 11
q11 10 17 25q11 31 11 60q0 25 -8 46z" />
    <glyph glyph-name="guillemotright" unicode="&#xbb;" 
d="M22 372q-15 -35 -11 -68q6 -44 91 -138q79 -86 103 -94q21 -6 44 22q25 30 -29 62q-34 29 -85 81q-48 56 -48 78q0 26 30 68q29 27 77 68q36 35 39 67q-4 26 -11 42q-7 17 -13 13q-146 -104 -187 -201zM233 372q-15 -35 -11 -68q6 -44 91 -138q79 -86 103 -94
q21 -6 44 22q25 30 -29 62q-34 29 -85 81q-48 56 -48 78q0 26 30 68q29 27 77 68q36 35 39 67q-4 26 -11 42q-7 17 -13 13q-146 -104 -187 -201z" />
    <glyph glyph-name="onequarter" unicode="&#xbc;" horiz-adv-x="782" 
d="M488 703q30 16 55 0q21 -6 39 -34q-102 -154 -238 -359q-122 -169 -189 -316q-102 11 -75 0q-11 0 -28 19q-12 17 7 41q180 237 429 649zM124 681q-8 -55 -17 -157q-10 -110 -16 -157q-17 -17 -47 -15q-3 3 -8 17q2 99 3 123q2 69 7 122q0 3 -3 3q-4 0 -16 -5t-17 -5
q-2 0 -3 1q-10 35 -9 48q1 7 26 29q19 17 31 27q6 2 17 2q50 0 52 -33zM693 188q1 -3 1 -9q0 -18 -9 -51q-11 0 -25 -1q-3 -39 -10 -112q-16 -8 -29 -8q-8 0 -24 5q-4 2 -7 6q-1 48 2 107q-120 -3 -125 6q-3 4 -3 17q0 24 5.5 60t12.5 58q6 4 19 4q17 0 42 -5l-4 -69
q4 -6 58 -6q5 59 17 152q10 11 30 11q17 0 29 -6q-3 -78 -8 -158z" />
    <glyph glyph-name="onehalf" unicode="&#xbd;" horiz-adv-x="781" 
d="M488 703q30 16 55 0q21 -6 39 -34q-102 -154 -238 -359q-122 -169 -189 -316q-102 11 -75 0q-11 0 -28 19q-12 17 7 41q180 237 429 649zM124 681q-8 -55 -17 -157q-10 -110 -16 -157q-17 -17 -47 -15q-3 3 -8 17q2 99 3 123q2 69 7 122q0 3 -3 3q-4 0 -16 -5t-17 -5
q-2 0 -3 1q-10 35 -9 48q1 7 26 29q19 17 31 27q6 2 17 2q50 0 52 -33zM696 57q1 -15 -20 -45q-19 -27 -28 -31q-94 21 -199 90q-3 2 -3 14t3 31q4 25 9 27q40 11 72 35q41 30 40 62q0 12 -17 19q-12 5 -26 5q-16 0 -39 -15q-15 -9 -24 -9t-26 19t-17 27q0 2 2 3
q48 36 114 40h18q94 0 94 -69q0 -16 -5 -31q-28 -77 -110 -127q18 -12 82 -29q58 -15 80 -16z" />
    <glyph glyph-name="threequarters" unicode="&#xbe;" horiz-adv-x="781" 
d="M488 703q30 16 55 0q21 -6 39 -34q-102 -154 -238 -359q-122 -169 -189 -316q-102 11 -75 0q-11 0 -28 19q-12 17 7 41q180 237 429 649zM208 496q4 -13 4 -26q0 -49 -63 -92q-45 -30 -107 -33q-10 0 -22.5 12t-12.5 23q0 14 28 13q14 0 37 7q47 15 60 42q6 13 3 22
q-2 4 -7 7q-13 10 -30 10q-8 0 -29.5 -6l-21.5 -6q-13 9 -13 38q0 15 7 22q27 9 53 36.5t30 54.5q2 9 -1 17.5t-10 10t-11 1.5q-24 0 -51 -14q-5 -3 -37 -20q-6 -3 -10 17q-3 15 -3 25q0 14 4 18q66 40 116 40q34 0 62 -18q21 -13 21 -46q0 -57 -70 -124q29 -3 42 -7
q22 -6 32 -24zM693 188q1 -3 1 -9q0 -18 -9 -51q-11 0 -25 -1q-3 -39 -10 -112q-16 -8 -30 -8q-7 0 -23 5q-4 2 -7 6q-1 48 2 107q-120 -3 -125 6q-3 4 -3 17q0 24 5.5 60t12.5 58q6 4 19 4q17 0 42 -5l-4 -69q4 -6 58 -6q5 59 17 152q10 11 30 11q17 0 29 -6
q-3 -78 -9 -158z" />
    <glyph glyph-name="questiondown" unicode="&#xbf;" horiz-adv-x="486" 
d="M383 697q5 -41 -23 -69q-25 -40 -71 -40q-39 0 -52 35q-9 24 -9 44q0 25 13 45q27 30 70 30q13 0 23 -3q39 -12 49 -42zM429 2q-12 -15 -50 -12q-139 10 -243 77q-120 77 -136 204q7 62 46 98q22 20 85 50.5t91 59.5q10 10 12 45q5 17 25 29t39 12q23 0 63 -15
q20 -7 18 -49q-2 -35 -22 -60q-25 -30 -111 -79q-62 -35 -67 -85q8 -76 90 -113q74 -24 149 -49q14 -76 11 -113z" />
    <glyph glyph-name="Agrave" unicode="&#xc0;" horiz-adv-x="564" 
d="M367 816q0 -9 -22 -25.5t-30 -13.5q-93 33 -119 43q-76 30 -113 58q-2 1 -2 4q0 14 34.5 48t52.5 34t114 -69q85 -61 85 -79zM510 11q-34 -22 -97 -20q-25 35 -58 133l-3 9l-9 -1q-102 -11 -179 -37l-6 -2l-2 -6q-7 -34 -26 -92q-14 -26 -52 -25q-35 1 -80 7
q16 143 77 350q25 86 112 353q5 7 42 10q34 3 46 1q18 -26 55 -97q106 -241 180 -583zM314 246q-14 48 -56 170l-25 66l-17 -69q-13 -48 -37 -173l-4 -26l26 1q16 1 113 31z" />
    <glyph glyph-name="Aacute" unicode="&#xc1;" horiz-adv-x="564" 
d="M399 878q-47 -36 -232 -101q-8 -3 -30 13.5t-22 25.5q0 18 85 79q96 69 114 69t52.5 -34t34.5 -48q0 -3 -2 -4zM510 11q-34 -22 -97 -20q-25 35 -58 133l-3 9l-9 -1q-102 -11 -179 -37l-6 -2l-2 -6q-7 -34 -26 -92q-14 -26 -52 -25q-35 1 -80 7q16 143 77 350
q25 86 112 353q5 7 42 10q34 3 46 1q18 -26 55 -97q106 -241 180 -583zM314 246q-14 48 -56 170l-25 66l-17 -69q-13 -48 -37 -173l-4 -26l26 1q16 1 113 31z" />
    <glyph glyph-name="Acircumflex" unicode="&#xc2;" horiz-adv-x="564" 
d="M455 816q0 -9 -22.5 -25.5t-29.5 -13.5q-25 9 -69 38q-47 31 -70 41q-59 -33 -156 -79q-7 -2 -30 14t-23 25q0 1 95 82q59 50 99 65q6 1 13 0q2 -1 10 -4q27 -13 101 -67q82 -60 82 -76zM510 11q-34 -22 -97 -20q-25 35 -58 133l-3 9l-9 -1q-102 -11 -179 -37l-6 -2
l-2 -6q-7 -34 -26 -92q-14 -26 -52 -25q-35 1 -80 7q16 143 77 350q25 86 112 353q5 7 42 10q34 3 46 1q18 -26 55 -97q106 -241 180 -583zM314 246q-14 48 -56 170l-25 66l-17 -69q-13 -48 -37 -173l-4 -26l26 1q16 1 113 31z" />
    <glyph glyph-name="Atilde" unicode="&#xc3;" horiz-adv-x="564" 
d="M455 821q-37 -80 -106 -79q-33 0 -78.5 54t-79.5 55q-69 1 -121 -45q-11 13 -9 45q36 83 128 92q33 3 79 -47q47 -53 79 -53q59 -1 106 32q6 -1 6 -18q0 -13 -4 -36zM510 11q-34 -22 -97 -20q-25 35 -58 133l-3 9l-9 -1q-102 -11 -179 -37l-6 -2l-2 -6q-7 -34 -26 -92
q-14 -26 -52 -25q-35 1 -80 7q16 143 77 350q25 86 112 353q5 7 42 10q34 3 46 1q18 -26 55 -97q106 -241 180 -583zM314 246q-14 48 -56 170l-25 66l-17 -69q-13 -48 -37 -173l-4 -26l26 1q16 1 113 31z" />
    <glyph glyph-name="Adieresis" unicode="&#xc4;" horiz-adv-x="564" 
d="M428 818q-24 -27 -64 -27q-14 0 -28 3q-40 15 -51 45q-1 8 -1 16q0 31 21 52q22 37 67 37q41 0 56 -37q11 -27 11 -49t-11 -40zM189 917q4 -18 4 -35q0 -42 -22.5 -65t-63.5 -19q-52 17 -52 65q0 31 24.5 57t55.5 26q41 0 54 -29zM510 11q-34 -22 -97 -20q-25 35 -58 133
l-3 9l-9 -1q-102 -11 -179 -37l-6 -2l-2 -6q-7 -34 -26 -92q-14 -26 -52 -25q-35 1 -80 7q16 143 77 350q25 86 112 353q5 7 42 10q34 3 46 1q18 -26 55 -97q106 -241 180 -583zM314 246q-14 48 -56 170l-25 66l-17 -69q-13 -48 -37 -173l-4 -26l26 1q16 1 113 31z" />
    <glyph glyph-name="Aring" unicode="&#xc5;" horiz-adv-x="566" 
d="M510 40q-34 -22 -97 -20q-25 35 -58 133l-3 9l-9 -1q-102 -11 -179 -37l-6 -2l-2 -6q-7 -34 -26 -92q-14 -26 -52 -25q-35 1 -80 7q16 143 77 350q25 86 112 353q5 7 42 10q34 3 46 1q18 -26 55 -97q106 -241 180 -583zM324 266q-14 48 -56 170l-25 66l-17 -69
q-13 -48 -37 -173l-4 -26l26 1q16 1 113 31zM335 883q0 -34 -26 -64q-33 -44 -96 -49q-23 0 -42 10q-39 21 -39 70q0 21 9 41q9 21 26 35q38 36 85 39q23 6 43 -7q40 -21 40 -75zM268 843q6 13 6 25q0 21 -13 34q-12 8 -24 6q-15 0 -31 -10q-17 -13 -17 -37q0 -11 4 -19
q2 -6 10 -13q7 -5 14 -8q4 -2 14 -1q14 3 23.5 8.5t13.5 14.5z" />
    <glyph glyph-name="AE" unicode="&#xc6;" horiz-adv-x="882" 
d="M324 266q-14 48 -56 170l-25 66l-17 -69q-13 -48 -37 -173l-4 -26l26 1q16 1 113 31zM339 161q-99 -12 -175 -37l-6 -2l-2 -6q-7 -34 -26 -92q-14 -26 -52 -25q-35 1 -80 7q16 143 77 350q25 86 112 353q5 7 42 10q34 3 46 1q18 -26 55 -97q28 -65 55 -137q21 85 52 165
q142 31 354 36q5 -28 -8 -68t-33 -62q-118 -7 -211 -17l-9 -1l-1 -9q0 -5 -14 -60q-10 -40 -3 -57l3 -7h7q13 0 47 2q45 3 68 4q61 3 98 -6q3 -15 3 -32q0 -29 -8 -65q-41 -9 -116 -17q-56 -6 -112 -14l-7 -1l-2 -7q-12 -44 -4 -120l1 -9l10 -1q19 -2 131 12q32 4 60 4
q33 0 59 -6q-1 -19 -6 -69q-6 -44 -33 -49q-73 -14 -170 -22l-168 -15q-16 3 -27.5 16.5t-11.5 30.5q2 62 5 119z" />
    <glyph glyph-name="ccdilla" unicode="&#xc7;" horiz-adv-x="556" 
d="M509 126q-6 -17 -32.5 -44t-44.5 -38q-91 -57 -205 -57q-63 0 -121 42q-106 77 -106 243q0 246 199 383q83 57 157 57q69 0 133 -49q-6 -67 -41 -147l-1 -4q-44 50 -102 50q-44 0 -85 -27q-66 -43 -101 -128q-31 -76 -32 -163q0 -82 66 -110q24 -10 50 -10q56 0 115 39
q51 34 90 86q41 -54 61 -123zM169 -96q50 -15 80 -8q33 11 36 32q-2 13 -27 23q-40 8 -56 14q-2 13 -2 24q4 12 11 31q22 -1 32 1q12 -2 19.5 -2.5t0.5 -22.5q1 -10 5 -13q11 -8 36.5 -16t33.5 -14q16 -10 19 -28q-6 -34 -55 -56q-42 -18 -97 -16q-25 2 -38 7q-9 21 2 44z
" />
    <glyph glyph-name="Egrave" unicode="&#xc8;" horiz-adv-x="486" 
d="M444 816q0 -9 -22.5 -25.5t-30.5 -13.5q-93 33 -119 43q-76 30 -113 58q-2 1 -2 4q0 14 35 48t52 34q19 0 115 -69q85 -61 85 -79zM456 687q5 -28 -8 -68t-33 -62q-118 -7 -211 -17l-9 -1l-1 -9q0 -5 -14 -60q-10 -40 -3 -57l3 -7h7q13 0 47 2q45 3 68 4q61 3 98 -6
q3 -15 3 -32q0 -29 -8 -65q-41 -9 -116 -17q-56 -6 -112 -14l-7 -1l-2 -7q-12 -44 -4 -120l1 -9l10 -1q19 -2 131 12q32 4 60 4q33 0 59 -6q-1 -19 -6 -69q-6 -44 -33 -49q-73 -14 -170 -22l-168 -15q-16 3 -27.5 16.5t-11.5 30.5q5 184 25 316q24 155 78 293q142 31 354 36
z" />
    <glyph glyph-name="Eacute" unicode="&#xc9;" horiz-adv-x="486" 
d="M441 878q-47 -36 -232 -101q-8 -3 -30.5 13.5t-22.5 25.5q0 18 85 79q96 69 114 69t53 -34t35 -48q0 -3 -2 -4zM456 687q5 -28 -8 -68t-33 -62q-118 -7 -211 -17l-9 -1l-1 -9q0 -5 -14 -60q-10 -40 -3 -57l3 -7h7q13 0 47 2q45 3 68 4q61 3 98 -6q3 -15 3 -32
q0 -29 -8 -65q-41 -9 -116 -17q-56 -6 -112 -14l-7 -1l-2 -7q-12 -44 -4 -120l1 -9l10 -1q19 -2 131 12q32 4 60 4q33 0 59 -6q-1 -19 -6 -69q-6 -44 -33 -49q-73 -14 -170 -22l-168 -15q-16 3 -27.5 16.5t-11.5 30.5q5 184 25 316q24 155 78 293q142 31 354 36z" />
    <glyph glyph-name="Ecircumflex" unicode="&#xca;" horiz-adv-x="486" 
d="M493 816q0 -9 -22.5 -25.5t-30.5 -13.5q-24 8 -69 38q-48 32 -70 41q-58 -33 -155 -79q-7 -2 -30 14t-23 25q0 2 94 82q58 50 100 65q5 1 13 0q44 -22 111 -71q82 -60 82 -76zM456 687q5 -28 -8 -68t-33 -62q-118 -7 -211 -17l-9 -1l-1 -9q0 -5 -14 -60q-10 -40 -3 -57
l3 -7h7q13 0 47 2q45 3 68 4q61 3 98 -6q3 -15 3 -32q0 -29 -8 -65q-41 -9 -116 -17q-56 -6 -112 -14l-7 -1l-2 -7q-12 -44 -4 -120l1 -9l10 -1q19 -2 131 12q32 4 60 4q33 0 59 -6q-1 -19 -6 -69q-6 -44 -33 -49q-73 -14 -170 -22l-168 -15q-16 3 -27.5 16.5t-11.5 30.5
q5 184 25 316q24 155 78 293q142 31 354 36z" />
    <glyph glyph-name="Edieresis" unicode="&#xcb;" horiz-adv-x="486" 
d="M473 818q-24 -27 -64 -27q-14 0 -28 3q-40 15 -51 45q-1 8 -1 16q0 31 21 52q22 37 67 37q41 0 56 -37q11 -27 11 -49t-11 -40zM234 909q3 -19 3 -36q0 -93 -85 -84q-52 19 -52 66q0 31 24.5 57t55.5 26q41 0 54 -29zM456 687q5 -28 -8 -68t-33 -62q-118 -7 -211 -17
l-9 -1l-1 -9q0 -5 -14 -60q-10 -40 -3 -57l3 -7h7q13 0 47 2q45 3 68 4q61 3 98 -6q3 -15 3 -32q0 -29 -8 -65q-41 -9 -116 -17q-56 -6 -112 -14l-7 -1l-2 -7q-12 -44 -4 -120l1 -9l10 -1q19 -2 131 12q32 4 60 4q33 0 59 -6q-1 -19 -6 -69q-6 -44 -33 -49q-73 -14 -170 -22
l-168 -15q-16 3 -27.5 16.5t-11.5 30.5q5 184 25 316q24 155 78 293q142 31 354 36z" />
    <glyph glyph-name="Igrave" unicode="&#xcc;" horiz-adv-x="252" 
d="M270 816q0 -9 -22 -25.5t-30 -13.5q-93 33 -119 43q-78 31 -114 58q-1 1 -1 3q0 14 34.5 48.5t52.5 34.5t114 -69q85 -61 85 -79zM181 687q-13 -305 -51 -687q-34 -16 -63 -16q-14 0 -48 11q-10 3 -15 12q-4 52 -4 110q0 125 19 283q8 70 35 271q22 23 59 23q12 0 36 -3z
" />
    <glyph glyph-name="Iacute" unicode="&#xcd;" horiz-adv-x="266" 
d="M285 878q-45 -34 -233 -101q-7 -3 -29.5 13.5t-22.5 25.5q0 18 85 79q96 69 114 69t52.5 -34.5t34.5 -48.5q0 -2 -1 -3zM181 687q-13 -305 -51 -687q-34 -16 -63 -16q-14 0 -48 11q-10 3 -15 12q-4 52 -4 110q0 125 19 283q8 70 35 271q22 23 59 23q12 0 36 -3z" />
    <glyph glyph-name="Icircumflex" unicode="&#xce;" horiz-adv-x="310" 
d="M332 816q0 -10 -22.5 -25.5t-30.5 -13.5q-25 10 -69.5 39.5t-68.5 39.5q-59 -33 -156 -79q-7 -2 -30 14t-23 25q0 1 95 82q59 50 99 65q5 1 13 0q2 -1 10 -4q27 -13 101 -67q82 -60 82 -76zM181 687q-13 -305 -51 -687q-34 -16 -63 -16q-14 0 -48 11q-10 3 -15 12
q-4 52 -4 110q0 125 19 283q8 70 35 271q22 23 59 23q12 0 36 -3z" />
    <glyph glyph-name="Idieresis" unicode="&#xcf;" horiz-adv-x="312" 
d="M323 818q-24 -27 -64 -27q-14 0 -28 3q-39 15 -51 45q-1 7 -1 14q0 32 22 54q22 37 66 37q41 0 56 -37q11 -27 11 -49t-11 -40zM84 917q4 -18 4 -35q0 -93 -86 -84q-51 17 -51 65q0 31 24 57t55 26q42 0 54 -29zM181 687q-13 -305 -51 -687q-34 -16 -63 -16q-14 0 -48 11
q-10 3 -15 12q-4 52 -4 110q0 125 19 283q8 70 35 271q22 23 59 23q12 0 36 -3z" />
    <glyph glyph-name="eth" unicode="&#xd0;" horiz-adv-x="700" 
d="M423 444q-3 54 -33 87q-34 35 -95 37q-7 0 -89 -10l-8 -1l-1 -8q-8 -62 -13 -119l61 5q78 6 178 9zM63 419q12 97 31 220q82 65 211 65q138 0 252 -65q58 -33 84.5 -73t26.5 -107q0 -156 -173 -293q-194 -154 -444 -178q-14 90 -5 251q3 49 9 112q-16 0 -34 1
q-11 3 -29 17q0 20 4 25q13 11 25 21zM177 347q-3 -67 -14 -199l-2 -18l17 7q81 33 147 96q59 56 82 117q-83 -4 -148 -4q-35 0 -82 1z" />
    <glyph glyph-name="Ntilde" unicode="&#xd1;" horiz-adv-x="654" 
d="M495 821q-38 -80 -107 -79q-32 0 -78 54t-79 55q-70 1 -122 -45q-11 13 -9 45q36 83 128 92q33 3 79 -47q47 -53 79 -53q59 -1 106 32q6 -1 6 -20q0 -13 -3 -34zM574 341q-8 -49 -16.5 -151.5t-18.5 -154.5q-24 -24 -55 -27q-39 42 -333 335l-6 -168q-4 -96 -23 -163
q-45 -21 -59 -21q-23 0 -59 27v421q-1 125 -5 206q22 41 79 45q123 -138 347 -357q6 47 9 152q3 98 7 156q3 17 44 33q31 11 58 11q9 0 17 -1q26 -53 26 -137q0 -34 -6 -103t-6 -103z" />
    <glyph glyph-name="Ograve" unicode="&#xd2;" horiz-adv-x="673" 
d="M485 816q0 -9 -22 -25.5t-30 -13.5q-93 33 -119 43q-76 30 -113 58q-2 1 -2 4q0 14 34.5 48t52.5 34q20 0 115 -69q84 -61 84 -79zM604 368q0 -138 -73 -255q-87 -139 -243 -139q-85 0 -151 41q-137 85 -137 280q0 87 32 166q32 84 93 141q108 102 203 102q64 0 127 -46
q149 -108 149 -290zM422 510q-16 39 -36 49q-14 7 -52 7q-74 0 -117 -62q-72 -103 -72 -206q0 -43 13 -83q18 -54 93 -88q18 -8 39 -8q40 0 75 32q31 28 47 69q33 84 33 166q0 68 -23 124z" />
    <glyph glyph-name="Oacute" unicode="&#xd3;" horiz-adv-x="673" 
d="M483 878q-45 -34 -233 -101q-7 -3 -29.5 13.5t-22.5 25.5q0 18 85 79q96 69 114 69t52.5 -34.5t34.5 -48.5q0 -2 -1 -3zM604 368q0 -138 -73 -255q-87 -139 -243 -139q-85 0 -151 41q-137 85 -137 280q0 87 32 166q32 84 93 141q108 102 203 102q64 0 127 -46
q149 -108 149 -290zM422 510q-16 39 -36 49q-14 7 -52 7q-74 0 -117 -62q-72 -103 -72 -206q0 -43 13 -83q18 -54 93 -88q18 -8 39 -8q40 0 75 32q31 28 47 69q33 84 33 166q0 68 -23 124z" />
    <glyph glyph-name="Ocircumflex" unicode="&#xd4;" horiz-adv-x="673" 
d="M538 816q0 -9 -22 -25.5t-30 -13.5q-24 8 -69 38q-48 32 -70 41q-58 -33 -155 -79q-7 -2 -30 14t-23 25q0 2 94 82q58 50 100 65q5 1 12 0q28 -9 112 -71q81 -60 81 -76zM604 368q0 -138 -73 -255q-87 -139 -243 -139q-85 0 -151 41q-137 85 -137 280q0 87 32 166
q32 84 93 141q108 102 203 102q64 0 127 -46q149 -108 149 -290zM422 510q-16 39 -36 49q-14 7 -52 7q-74 0 -117 -62q-72 -103 -72 -206q0 -43 13 -83q18 -54 93 -88q18 -8 39 -8q40 0 75 32q31 28 47 69q33 84 33 166q0 68 -23 124z" />
    <glyph glyph-name="Otilde" unicode="&#xd5;" horiz-adv-x="673" 
d="M542 821q-37 -80 -106 -79q-33 0 -78.5 54t-79.5 55q-69 1 -121 -45q-11 13 -10 45q37 83 128 92q33 3 79 -47q48 -53 79 -53q60 -1 106 32q6 -1 6 -19q0 -13 -3 -35zM604 368q0 -138 -73 -255q-87 -139 -243 -139q-85 0 -151 41q-137 85 -137 280q0 87 32 166
q32 84 93 141q108 102 203 102q64 0 127 -46q149 -108 149 -290zM422 510q-16 39 -36 49q-14 7 -52 7q-74 0 -117 -62q-72 -103 -72 -206q0 -43 13 -83q18 -54 93 -88q18 -8 39 -8q40 0 75 32q31 28 47 69q33 84 33 166q0 68 -23 124z" />
    <glyph glyph-name="Odieresis" unicode="&#xd6;" horiz-adv-x="673" 
d="M532 818q-24 -27 -64 -27q-14 0 -29 3q-39 15 -51 45q-1 7 -1 14q0 32 22 54q22 37 67 37q40 0 56 -37q11 -26 11 -49q0 -22 -11 -40zM293 917q3 -18 3 -35q0 -93 -85 -84q-52 17 -52 65q0 31 24 57t55 26q42 0 55 -29zM604 368q0 -138 -73 -255q-87 -139 -243 -139
q-85 0 -151 41q-137 85 -137 280q0 87 32 166q32 84 93 141q108 102 203 102q64 0 127 -46q149 -108 149 -290zM422 510q-16 39 -36 49q-14 7 -52 7q-74 0 -117 -62q-72 -103 -72 -206q0 -43 13 -83q18 -54 93 -88q18 -8 39 -8q40 0 75 32q31 28 47 69q33 84 33 166
q0 68 -23 124z" />
    <glyph glyph-name="multiply" unicode="&#xd7;" horiz-adv-x="600" 
d="M292 192l-184 -180q-8 -6 -28 -14h-53q-14 5 -29 46q14 35 175 162q24 23 54 56q-134 119 -198 186q-37 77 47 79q10 0 22 -7q26 -12 48 -32q27 -49 104 -123q19 -20 35 -38q18 20 37 42q65 70 109 131q32 35 50 43q24 13 43 1q53 -19 7 -86q-65 -66 -179 -203
q26 -28 44 -49q151 -160 150 -162q10 -41 -4 -46h-73q-19 8 -28 14z" />
    <glyph glyph-name="Oslash" unicode="&#xd8;" horiz-adv-x="673" 
d="M356 565q-10 1 -22 1q-74 0 -117 -62q-72 -103 -72 -206q0 -27 5 -52q35 59 79 127q42 66 127 192zM250 127h1q18 -8 39 -8q40 0 75 32q31 28 47 69q33 84 33 166q0 27 -4 51q-85 -143 -191 -310zM530 588q74 -92 74 -220q0 -138 -73 -255q-87 -139 -243 -139
q-66 0 -120 24q-17 -26 -34 -53q-59 2 -101 46q-7 8 -7 18q14 34 34 75q-60 81 -60 211q0 87 32 166q32 84 93 141q108 102 203 102q51 0 102 -30q13 21 28 42q13 4 25 4q28 0 96 -47q-23 -41 -49 -85z" />
    <glyph glyph-name="Ugrave" unicode="&#xd9;" horiz-adv-x="560" 
d="M412 816q0 -9 -22.5 -25.5t-29.5 -13.5q-100 36 -119 43q-78 31 -114 58q-1 1 -1 3q0 14 34.5 48.5t52.5 34.5t114 -69q85 -61 85 -79zM488 677q0 -241 -17 -347q-31 -193 -135 -305q-44 -47 -107 -50q-82 -3 -131 54q-98 114 -98 320q0 80 36 342q13 21 83 21
q57 0 63 -16l-22 -178q-12 -104 -12 -181q0 -109 27 -169q14 -32 56 -32q11 0 18 4q71 53 93 318q4 52 10 210q9 21 77 21q50 0 59 -12z" />
    <glyph glyph-name="Uacute" unicode="&#xda;" horiz-adv-x="560" 
d="M431 878q-46 -35 -232 -101q-8 -3 -30.5 13.5t-22.5 25.5q0 18 85 79q96 69 114 69t52.5 -34.5t34.5 -48.5q0 -2 -1 -3zM488 677q0 -241 -17 -347q-31 -193 -135 -305q-44 -47 -107 -50q-82 -3 -131 54q-98 114 -98 320q0 80 36 342q13 21 83 21q57 0 63 -16l-22 -178
q-12 -104 -12 -181q0 -109 27 -169q14 -32 56 -32q11 0 18 4q71 53 93 318q4 52 10 210q9 21 77 21q50 0 59 -12z" />
    <glyph glyph-name="Ucircumflex" unicode="&#xdb;" horiz-adv-x="560" 
d="M481 816q0 -9 -22.5 -25.5t-30.5 -13.5q-24 8 -69 38q-48 32 -70 41q-58 -33 -155 -79q-7 -2 -30 14t-23 25q0 2 94 82q58 50 100 65q5 1 12 0q27 -9 112 -71q82 -60 82 -76zM488 677q0 -241 -17 -347q-31 -193 -135 -305q-44 -47 -107 -50q-82 -3 -131 54
q-98 114 -98 320q0 80 36 342q13 21 83 21q57 0 63 -16l-22 -178q-12 -104 -12 -181q0 -109 27 -169q14 -32 56 -32q11 0 18 4q71 53 93 318q4 52 10 210q9 21 77 21q50 0 59 -12z" />
    <glyph glyph-name="Udieresis" unicode="&#xdc;" horiz-adv-x="560" 
d="M463 818q-24 -27 -64 -27q-14 0 -28 3q-40 15 -52 45q-1 7 -1 14q0 32 22 54q22 37 67 37q41 0 56 -37q11 -27 11 -49t-11 -40zM224 917q3 -18 3 -35q0 -93 -85 -84q-52 17 -52 65q0 31 24 57t55 26q42 0 55 -29zM488 677q0 -241 -17 -347q-31 -193 -135 -305
q-44 -47 -107 -50q-82 -3 -131 54q-98 114 -98 320q0 80 36 342q13 21 83 21q57 0 63 -16l-22 -178q-12 -104 -12 -181q0 -109 27 -169q14 -32 56 -32q11 0 18 4q71 53 93 318q4 52 10 210q9 21 77 21q50 0 59 -12z" />
    <glyph glyph-name="Yacute" unicode="&#xdd;" horiz-adv-x="642" 
d="M486 878q-47 -36 -232 -101q-8 -3 -30.5 13.5t-22.5 25.5q0 18 85 79q96 69 114 69t53 -34t35 -48q0 -3 -2 -4zM633 749q-10 -37 -37 -99q-70 -159 -187 -362l-198 -341q-8 -14 -119 -27q-24 -3 -24 9q0 5 3 12q47 86 194 394q-111 106 -262 273q-3 2 -3 6q0 16 128 83
q10 4 27 10q120 -144 200 -210q53 100 105 226q9 22 21 28t38 6q18 0 114 -8z" />
    <glyph glyph-name="Thorn" unicode="&#xde;" horiz-adv-x="622" 
d="M394 460q0 24 -33 37q-26 10 -54 10q-16 0 -28 -3q-55 -13 -74 -32q-9 -9 -21 -63q-14 -65 -17 -145q80 21 147 71q80 60 80 125zM32 351h-1q36 253 129 423q17 8 84 1q74 -8 95 -30q-24 -30 -69 -115q51 10 100 10q183 0 183 -141q0 -36 -10 -63q-56 -153 -221 -254
l-173 -62q-11 -40 -10 -105v-15l-138 -4v24q0 151 31 331z" />
    <glyph glyph-name="germandbls" unicode="&#xdf;" 
d="M364 349q-57 49 -44 85q3 10 42 47q73 57 73 158q0 56 -45 85q-47 29 -107 29q-59 0 -132 -26q-86 -34 -117 -63q-31 -212 -31 -347q0 -221 26 -313q34 -5 68 -5q13 0 29 1q-24 196 24 615q9 19 40 29q37 12 74 2q19 -6 27 -33q12 -28 -25 -80q-4 1 -25 -31
q-25 -36 -22 -66q6 -67 53 -113q26 -24 47 -43q35 -34 46 -51q9 -12 6 -34q-4 -25 -24 -42q-40 -29 -74 -25q-14 2 -45 18q-10 6 -38 41q-24 -5 -28 -20q7 -25 36 -50q46 -39 118 -36q46 2 85 28q54 35 60 102q6 52 -40 92q-37 31 -57 46z" />
    <glyph glyph-name="agrave" unicode="&#xe0;" horiz-adv-x="538" 
d="M397 816q0 -9 -22.5 -25.5t-30.5 -13.5q-93 33 -119 43q-76 30 -113 58q-2 1 -2 4q0 14 35 48t52 34q19 0 115 -69q85 -61 85 -79zM480 9q-11 -22 -86 -39q-25 -6 -31 1q-2 3 -8 28q-11 45 -31 166l-2 12l-11 -3q-31 -6 -112 -27q-28 -8 -37 -44q-14 -56 -34 -122
q-64 -4 -124 26l-2 1l1 3q18 54 116 374q60 193 103 287q17 6 38 6q23 0 51 -7q100 -229 169 -662zM294 275l-1 9q-2 15 -37 168l-9 39l-12 -39q-21 -69 -44 -183l-3 -15l16 3q23 4 82 15z" />
    <glyph glyph-name="aacute" unicode="&#xe1;" horiz-adv-x="538" 
d="M403 878q-47 -36 -232 -101q-8 -3 -30.5 13.5t-22.5 25.5q0 18 85 79q96 69 115 69q17 0 52 -34t35 -48q0 -3 -2 -4zM480 9q-11 -22 -86 -39q-25 -6 -31 1q-2 3 -8 28q-11 45 -31 166l-2 12l-11 -3q-31 -6 -112 -27q-28 -8 -37 -44q-14 -56 -34 -122q-64 -4 -124 26l-2 1
l1 3q18 54 116 374q60 193 103 287q17 6 38 6q23 0 51 -7q100 -229 169 -662zM294 275l-1 9q-2 15 -37 168l-9 39l-12 -39q-21 -69 -44 -183l-3 -15l16 3q23 4 82 15z" />
    <glyph glyph-name="acircumflex" unicode="&#xe2;" horiz-adv-x="538" 
d="M457 816q0 -10 -22.5 -25.5t-30.5 -13.5q-25 10 -69.5 39.5t-68.5 39.5q-59 -33 -156 -79q-7 -2 -30 14t-23 25q0 1 95 82q59 50 99 65q5 1 13 0q2 -1 10 -4q27 -13 101 -67q82 -60 82 -76zM480 9q-11 -22 -86 -39q-25 -6 -31 1q-2 3 -8 28q-11 45 -31 166l-2 12l-11 -3
q-31 -6 -112 -27q-28 -8 -37 -44q-14 -56 -34 -122q-64 -4 -124 26l-2 1l1 3q18 54 116 374q60 193 103 287q17 6 38 6q23 0 51 -7q100 -229 169 -662zM294 275l-1 9q-2 15 -37 168l-9 39l-12 -39q-21 -69 -44 -183l-3 -15l16 3q23 4 82 15z" />
    <glyph glyph-name="atilde" unicode="&#xe3;" horiz-adv-x="538" 
d="M462 821q-37 -80 -106 -79q-33 0 -78.5 54t-79.5 55q-69 1 -121 -45q-11 13 -9 45q36 84 127 92q34 3 80 -47q47 -53 78 -53q60 -1 107 32q6 -1 6 -18q0 -13 -4 -36zM480 9q-11 -22 -86 -39q-25 -6 -31 1q-2 3 -8 28q-11 45 -31 166l-2 12l-11 -3q-31 -6 -112 -27
q-28 -8 -37 -44q-14 -56 -34 -122q-64 -4 -124 26l-2 1l1 3q18 54 116 374q60 193 103 287q17 6 38 6q23 0 51 -7q100 -229 169 -662zM294 275l-1 9q-2 15 -37 168l-9 39l-12 -39q-21 -69 -44 -183l-3 -15l16 3q23 4 82 15z" />
    <glyph glyph-name="adieresis" unicode="&#xe4;" horiz-adv-x="538" 
d="M456 818q-24 -27 -64 -27q-14 0 -28 3q-40 15 -51 45q-1 8 -1 16q0 31 21 52q22 37 67 37q41 0 56 -37q11 -27 11 -49t-11 -40zM217 917q3 -18 3 -35q0 -93 -85 -84q-52 17 -52 65q0 31 24.5 57t55.5 26q41 0 54 -29zM480 9q-11 -22 -86 -39q-25 -6 -31 1q-2 3 -8 28
q-11 45 -31 166l-2 12l-11 -3q-31 -6 -112 -27q-28 -8 -37 -44q-14 -56 -34 -122q-64 -4 -124 26l-2 1l1 3q18 54 116 374q60 193 103 287q17 6 38 6q23 0 51 -7q100 -229 169 -662zM294 275l-1 9q-2 15 -37 168l-9 39l-12 -39q-21 -69 -44 -183l-3 -15l16 3q23 4 82 15z
" />
    <glyph glyph-name="aring" unicode="&#xe5;" horiz-adv-x="544" 
d="M499 10q1 -23 -101 -40q-25 -6 -31 1q-2 3 -8 28q-11 45 -31 166l-2 12l-11 -3q-31 -6 -127 -28q-11 -4 -22 -43q-14 -56 -34 -122q-64 -4 -124 26l-2 1l1 3q-5 42 98 363q100 289 121 298q17 6 38 6q23 0 51 -7q109 -201 184 -661zM298 275l-1 9q-2 15 -37 168l-9 39
l-12 -39q-21 -69 -44 -183l-3 -15l16 3q23 4 82 15zM388 869q0 -34 -26 -64q-33 -44 -96 -49q-23 0 -42 10q-39 21 -39 70q0 21 9 41q9 21 26 35q38 36 85 39q23 6 43 -7q40 -21 40 -75zM321 829q6 13 6 25q0 21 -13 34q-12 8 -24 6q-15 0 -31 -10q-17 -13 -17 -37
q0 -11 4 -19q2 -6 10 -13q7 -5 14 -8q4 -2 14 -1q14 3 23.5 8.5t13.5 14.5z" />
    <glyph glyph-name="ae" unicode="&#xe6;" horiz-adv-x="820" 
d="M298 275l-1 9q-2 15 -37 168l-9 39l-12 -39q-21 -69 -44 -183l-3 -15l16 3q23 4 82 15zM467 188l10 -50q49 0 140 7l148 11q25 -48 24 -115q-109 -33 -209 -45q-33 -3 -126 -14q-22 -6 -56 -12q-25 -6 -31 1q-2 3 -8 28q-1 2 -1 5q-11 9 -12 21q-3 32 -5 65q-6 33 -13 75
l-2 12l-11 -3q-31 -6 -127 -28q-11 -4 -22 -43q-14 -56 -34 -122q-64 -4 -124 26l-2 1l1 3q-5 42 98 363q100 289 121 298q17 6 38 6q23 0 51 -7q19 -36 38 -80q3 30 7 61q4 28 31 29q187 8 349 -9q15 -37 15 -56q0 -6 -5 -50q-54 -16 -139 -17q-97 -2 -134 -8
q-5 -73 -5 -82q0 -41 10 -54q36 -1 116 1q77 2 112 -6q7 -28 7 -58t-7 -55q-95 -6 -241 -16q0 12 -2 -69v-14z" />
    <glyph glyph-name="ccedilla" unicode="&#xe7;" horiz-adv-x="492" 
d="M472 667q-2 -31 -13 -78q-8 -34 -16 -55q-64 26 -96 26q-22 0 -43 -8q-76 -30 -122.5 -102t-46.5 -155q0 -111 74 -145q37 -17 86 -17q36 0 66 12q14 6 60 27q-2 -20 -6 -42q-16 -89 -39 -108q-48 -30 -110 -30q-120 0 -194 78.5t-74 199.5q0 94 41 186q53 118 196 195
q65 35 133 35q51 0 104 -19zM149 -96q50 -15 80 -8q33 11 36 32q-2 13 -27 23q-40 8 -56 14q-2 13 -2 24q4 12 11 31q22 -1 32 1q12 -2 19.5 -2.5t0.5 -22.5q1 -10 5 -13q11 -8 36.5 -16t33.5 -14q16 -10 19 -28q-6 -34 -55 -56q-42 -18 -97 -16q-25 2 -38 7q-9 21 2 44z
" />
    <glyph glyph-name="egrave" unicode="&#xe8;" horiz-adv-x="500" 
d="M370 816q0 -9 -22 -25.5t-30 -13.5q-93 33 -119 43q-76 30 -113 58q-2 1 -2 4q0 14 34.5 48t52.5 34t114 -69q85 -61 85 -79zM452 41q-109 -33 -209 -45q-35 -3 -141 -16q-24 -3 -55 9q-36 14 -38 36q-11 118 -11 250q0 178 25 377q4 28 31 29q187 8 349 -9
q15 -37 15 -56q0 -6 -5 -50q-54 -16 -139 -17q-97 -2 -134 -8q-5 -73 -5 -82q0 -41 10 -54q36 -1 116 1q77 2 112 -6q7 -28 7 -58t-7 -55q-95 -6 -241 -16q0 12 -2 -69q-1 -53 4 -64q50 0 146 7l148 11q25 -48 24 -115z" />
    <glyph glyph-name="eacute" unicode="&#xe9;" horiz-adv-x="500" 
d="M375 878q-47 -36 -232 -101q-8 -3 -30.5 13.5t-22.5 25.5q0 18 85 79q96 69 114 69t53 -34t35 -48q0 -3 -2 -4zM452 41q-109 -33 -209 -45q-35 -3 -141 -16q-24 -3 -55 9q-36 14 -38 36q-11 118 -11 250q0 178 25 377q4 28 31 29q187 8 349 -9q15 -37 15 -56q0 -6 -5 -50
q-54 -16 -139 -17q-97 -2 -134 -8q-5 -73 -5 -82q0 -41 10 -54q36 -1 116 1q77 2 112 -6q7 -28 7 -58t-7 -55q-95 -6 -241 -16q0 12 -2 -69q-1 -53 4 -64q50 0 146 7l148 11q25 -48 24 -115z" />
    <glyph glyph-name="ecircumflex" unicode="&#xea;" horiz-adv-x="500" 
d="M425 816q0 -10 -22.5 -25.5t-30.5 -13.5q-25 10 -69.5 39.5t-68.5 39.5q-59 -33 -156 -79q-7 -2 -30 14t-23 25q0 1 95 82q59 50 99 65q5 1 13 0q2 -1 10 -4q27 -13 101 -67q82 -60 82 -76zM452 41q-109 -33 -209 -45q-35 -3 -141 -16q-24 -3 -55 9q-36 14 -38 36
q-11 118 -11 250q0 178 25 377q4 28 31 29q187 8 349 -9q15 -37 15 -56q0 -6 -5 -50q-54 -16 -139 -17q-97 -2 -134 -8q-5 -73 -5 -82q0 -41 10 -54q36 -1 116 1q77 2 112 -6q7 -28 7 -58t-7 -55q-95 -6 -241 -16q0 12 -2 -69q-1 -53 4 -64q50 0 146 7l148 11
q25 -48 24 -115z" />
    <glyph glyph-name="edieresis" unicode="&#xeb;" horiz-adv-x="500" 
d="M400 818q-24 -27 -64 -27q-14 0 -28 3q-40 15 -51 45q-1 8 -1 16q0 31 21 52q22 37 67 37q41 0 56 -37q11 -27 11 -49t-11 -40zM161 917q3 -18 3 -35q0 -93 -85 -84q-52 17 -52 65q0 31 24.5 57t55.5 26q41 0 54 -29zM452 41q-109 -33 -209 -45q-35 -3 -141 -16
q-24 -3 -55 9q-36 14 -38 36q-11 118 -11 250q0 178 25 377q4 28 31 29q187 8 349 -9q15 -37 15 -56q0 -6 -5 -50q-54 -16 -139 -17q-97 -2 -134 -8q-5 -73 -5 -82q0 -41 10 -54q36 -1 116 1q77 2 112 -6q7 -28 7 -58t-7 -55q-95 -6 -241 -16q0 12 -2 -69q-1 -53 4 -64
q50 0 146 7l148 11q25 -48 24 -115z" />
    <glyph glyph-name="igrave" unicode="&#xec;" horiz-adv-x="259" 
d="M270 816q0 -9 -22 -25.5t-30 -13.5q-93 33 -119 43q-78 31 -114 58q-1 1 -1 3q0 14 34.5 48.5t52.5 34.5t114 -69q85 -61 85 -79zM198 616q-20 -112 -39 -305q-21 -220 -36 -305q-38 -32 -104 -28q-8 6 -18 32q0 342 42 667l50 10q36 7 59 7q54 0 54 -40q0 -16 -8 -38z
" />
    <glyph glyph-name="iacute" unicode="&#xed;" horiz-adv-x="266" 
d="M285 878q-45 -34 -233 -101q-7 -3 -29.5 13.5t-22.5 25.5q0 18 85 79q96 69 114 69t52.5 -34.5t34.5 -48.5q0 -2 -1 -3zM198 616q-20 -112 -39 -305q-21 -220 -36 -305q-38 -32 -104 -28q-8 6 -18 32q0 342 42 667l50 10q36 7 59 7q54 0 54 -40q0 -16 -8 -38z" />
    <glyph glyph-name="icircumflex" unicode="&#xee;" horiz-adv-x="310" 
d="M332 816q0 -10 -22.5 -25.5t-30.5 -13.5q-25 10 -69.5 39.5t-68.5 39.5q-59 -33 -156 -79q-7 -2 -30 14t-23 25q0 1 95 82q59 50 99 65q5 1 13 0q2 -1 10 -4q27 -13 101 -67q82 -60 82 -76zM198 616q-20 -112 -39 -305q-21 -220 -36 -305q-38 -32 -104 -28q-8 6 -18 32
q0 342 42 667l50 10q36 7 59 7q54 0 54 -40q0 -16 -8 -38z" />
    <glyph glyph-name="idieresis" unicode="&#xef;" horiz-adv-x="312" 
d="M323 818q-24 -27 -64 -27q-14 0 -28 3q-39 15 -51 45q-1 7 -1 14q0 32 22 54q22 37 66 37q41 0 56 -37q11 -27 11 -49t-11 -40zM84 917q4 -18 4 -35q0 -93 -86 -84q-51 17 -51 65q0 31 24 57t55 26q42 0 54 -29zM198 616q-20 -112 -39 -305q-21 -220 -36 -305
q-38 -32 -104 -28q-8 6 -18 32q0 342 42 667l50 10q36 7 59 7q54 0 54 -40q0 -16 -8 -38z" />
    <glyph glyph-name="glyph185" unicode="&#xf0;" horiz-adv-x="699" 
d="M397 472q-8 28 -27 49q-34 35 -95 37q-7 0 -89 -10l-8 -1l-1 -8q-6 -45 -10 -88l43 6q48 6 178 14q4 0 9 1zM46 436q12 87 28 193q82 65 211 65q138 0 252 -65q58 -33 84.5 -73t26.5 -107q0 -156 -173 -293q-194 -154 -444 -178q-14 90 -5 251q3 61 13 144h-4
q-12 2 -32 14q-2 20 4 27l24 20zM160 372q-2 -16 -3 -32q-3 -67 -14 -202l-2 -18l17 7q81 33 147 96q78 74 94 158q-110 -10 -168 -10q-26 0 -71 1z" />
    <glyph glyph-name="ntilde" unicode="&#xf1;" horiz-adv-x="687" 
d="M540 821q-37 -80 -106 -79q-33 0 -79 54t-79 55q-70 1 -121 -45q-12 13 -10 45q36 83 128 92q33 3 79 -47q47 -53 79 -53q59 -1 106 32q6 -1 6 -19q0 -13 -3 -35zM626 632l-59 -393q-39 -230 -59 -258q-9 -2 -37 -14q-22 -9 -38 -9q-9 0 -17 2q-59 56 -102 132
q-26 48 -78 145q-32 59 -64 124l-35 -353q-23 -18 -49 -24q-20 -4 -52 -3q-36 1 -36 61q1 113 19 312q23 249 26 309q8 11 20 15l27 9q22 6 30 6q15 0 34 -15q110 -177 240 -430h11q10 80 71 432q18 2 61 17q40 14 58 14q32 0 32 -46q0 -12 -3 -33z" />
    <glyph glyph-name="ograve" unicode="&#xf2;" horiz-adv-x="722" 
d="M600 816q0 -9 -22.5 -25.5t-30.5 -13.5q-93 33 -119 43q-76 30 -113 58q-2 1 -2 4q0 14 35 48t53 34t114 -69q85 -61 85 -79zM475 52q-116 -91 -224 -90q-123 1 -175 49q-77 70 -77 205q0 61 17 127q31 121 143 222q108 97 233 126q26 6 52 6q62 0 112 -30t75 -85
q34 -74 34 -161q0 -220 -190 -369zM527 461q0 21 -9 42q-19 48 -78 48q-77 0 -163.5 -68t-112.5 -143q-16 -47 -14 -99q3 -70 50 -107q26 -20 61 -20q13 0 77 15q55 13 118 109q73 111 71 223z" />
    <glyph glyph-name="oacute" unicode="&#xf3;" horiz-adv-x="722" 
d="M597 878q-47 -36 -232 -101q-8 -3 -30 13.5t-22 25.5q0 18 85 79q96 69 114 69t52.5 -34t34.5 -48q0 -3 -2 -4zM475 52q-116 -91 -224 -90q-123 1 -175 49q-77 70 -77 205q0 61 17 127q31 121 143 222q108 97 233 126q26 6 52 6q62 0 112 -30t75 -85q34 -74 34 -161
q0 -220 -190 -369zM527 461q0 21 -9 42q-19 48 -78 48q-77 0 -163.5 -68t-112.5 -143q-16 -47 -14 -99q3 -70 50 -107q26 -20 61 -20q13 0 77 15q55 13 118 109q73 111 71 223z" />
    <glyph glyph-name="ocircumflex" unicode="&#xf4;" horiz-adv-x="722" 
d="M663 816q0 -9 -22 -25.5t-30 -13.5q-24 8 -69 38q-48 32 -70 41q-58 -33 -155 -79q-8 -2 -30.5 14t-22.5 25q0 2 1 4q5 2 93 78q58 50 100 65q5 1 12 0q28 -9 112 -71q81 -60 81 -76zM475 52q-116 -91 -224 -90q-123 1 -175 49q-77 70 -77 205q0 61 17 127
q31 121 143 222q108 97 233 126q26 6 52 6q62 0 112 -30t75 -85q34 -74 34 -161q0 -220 -190 -369zM527 461q0 21 -9 42q-19 48 -78 48q-77 0 -163.5 -68t-112.5 -143q-16 -47 -14 -99q3 -70 50 -107q26 -20 61 -20q13 0 77 15q55 13 118 109q73 111 71 223z" />
    <glyph glyph-name="otilde" unicode="&#xf5;" horiz-adv-x="722" 
d="M671 821q-37 -80 -106 -79q-33 0 -78.5 54t-79.5 55q-69 1 -121 -45q-11 13 -9 45q36 83 128 92q34 3 79 -47q47 -53 78 -53q60 -1 107 32q6 -1 6 -18q0 -13 -4 -36zM475 52q-116 -91 -224 -90q-123 1 -175 49q-77 70 -77 205q0 61 17 127q31 121 143 222q108 97 233 126
q26 6 52 6q62 0 112 -30t75 -85q34 -74 34 -161q0 -220 -190 -369zM527 461q0 21 -9 42q-19 48 -78 48q-77 0 -163.5 -68t-112.5 -143q-16 -47 -14 -99q3 -70 50 -107q26 -20 61 -20q13 0 77 15q55 13 118 109q73 111 71 223z" />
    <glyph glyph-name="odieresis" unicode="&#xf6;" horiz-adv-x="722" 
d="M668 818q-24 -27 -65 -27q-13 0 -28 3q-39 15 -51 45q-1 7 -1 14q0 32 22 54q22 37 67 37q40 0 56 -37q11 -26 11 -49q0 -22 -11 -40zM429 917q3 -18 3 -35q0 -93 -85 -84q-52 17 -52 65q0 31 24 57t55 26q42 0 55 -29zM475 52q-116 -91 -224 -90q-123 1 -175 49
q-77 70 -77 205q0 61 17 127q31 121 143 222q108 97 233 126q26 6 52 6q62 0 112 -30t75 -85q34 -74 34 -161q0 -220 -190 -369zM527 461q0 21 -9 42q-19 48 -78 48q-77 0 -163.5 -68t-112.5 -143q-16 -47 -14 -99q3 -70 50 -107q26 -20 61 -20q13 0 77 15q55 13 118 109
q73 111 71 223z" />
    <glyph glyph-name="divide" unicode="&#xf7;" horiz-adv-x="627" 
d="M391 596q16 -20 16 -47q0 -28 -16 -47t-44 -20q-57 -1 -82 31q-9 17 -9 37q0 30 19 58q28 31 60 32q41 -9 56 -44zM570 304q-168 -13 -281 -13q-93 0 -258 8q-12 4 -31 21q0 26 4 33q14 13 27 26l243 26q103 9 242 14q78 3 78 -35q0 -14 -10 -40q-12 -31 -14 -40zM358 85
q-24 -28 -64 -28q-17 0 -28 4q-40 14 -51 44q-1 9 -1 17q0 30 21 51q22 38 67 38q41 0 56 -38q11 -27 11 -48q0 -22 -11 -40z" />
    <glyph glyph-name="oslash" unicode="&#xf8;" horiz-adv-x="730" 
d="M367 537q-44 -17 -90 -54q-87 -68 -113 -143q-16 -47 -14 -99q1 -20 5 -37q44 76 104 169q38 58 108 164zM273 115q19 3 65 14q55 13 118 109q73 111 71 223q0 21 -9 42q-1 4 -3 7q-105 -177 -242 -395zM591 640q25 -24 40 -58q34 -74 34 -161q0 -220 -190 -369
q-116 -91 -224 -90q-40 0 -72 6q-8 -12 -15 -23q-59 2 -101 46q-7 8 -7 18q3 8 6 15q-63 69 -63 192q0 61 17 127q31 121 143 222q108 97 233 126q26 6 52 6q15 0 30 -2q7 10 14 21q13 4 25 4q28 0 96 -47q-9 -16 -18 -33z" />
    <glyph glyph-name="ugrave" unicode="&#xf9;" horiz-adv-x="635" 
d="M464 816q0 -9 -22 -25.5t-30 -13.5q-93 33 -119 43q-76 30 -113 58q-2 1 -2 4q0 14 34.5 48t52.5 34t114 -69q85 -61 85 -79zM571 676q5 -148 -24 -307q-38 -206 -120 -324q-57 -82 -172 -82q-62 0 -110 26q-146 80 -146 298q0 75 18 186l28 172q71 36 129 43q22 3 24 1
q6 -3 3 -20q-10 -61 -30 -182q-16 -102 -16 -182q0 -69 13 -137q4 -20 21 -36t37 -19q57 -8 87 61q43 97 67 239q3 16 40 249q51 21 102 21q28 0 49 -7z" />
    <glyph glyph-name="uacute" unicode="&#xfa;" horiz-adv-x="627" 
d="M476 878q-47 -36 -232 -101q-8 -3 -30.5 13.5t-22.5 25.5q0 18 85 79q96 69 114 69t53 -34t35 -48q0 -3 -2 -4zM571 676q5 -148 -24 -307q-38 -206 -120 -324q-57 -82 -172 -82q-62 0 -110 26q-146 80 -146 298q0 75 18 186l28 172q71 36 129 43q22 3 24 1q6 -3 3 -20
q-10 -61 -30 -182q-16 -102 -16 -182q0 -69 13 -137q4 -20 21 -36t37 -19q57 -8 87 61q43 97 67 239q3 16 40 249q51 21 102 21q28 0 49 -7z" />
    <glyph glyph-name="ucircumflex" unicode="&#xfb;" horiz-adv-x="635" 
d="M520 816q0 -9 -22 -25.5t-30 -13.5q-24 8 -69 38q-48 32 -70 41q-58 -33 -155 -79q-7 -2 -30 14t-23 25q0 2 94 82q58 50 100 65q5 1 12 0q28 -9 112 -71q81 -60 81 -76zM571 676q5 -148 -24 -307q-38 -206 -120 -324q-57 -82 -172 -82q-62 0 -110 26q-146 80 -146 298
q0 75 18 186l28 172q71 36 129 43q22 3 24 1q6 -3 3 -20q-10 -61 -30 -182q-16 -102 -16 -182q0 -69 13 -137q4 -20 21 -36t37 -19q57 -8 87 61q43 97 67 239q3 16 40 249q51 21 102 21q28 0 49 -7z" />
    <glyph glyph-name="udieresis" unicode="&#xfc;" horiz-adv-x="570" 
d="M464 818q-24 -27 -64 -27q-14 0 -28 3q-39 15 -51 45q-1 8 -1 15q0 31 21 53q23 37 67 37q41 0 56 -37q11 -27 11 -49t-11 -40zM226 917q3 -19 3 -35q0 -85 -70 -85q-7 0 -15 1q-52 17 -52 65q0 31 24 57t55 26q42 0 55 -29zM492 675q11 -64 11 -128q0 -153 -65 -311
q-56 -136 -104 -192q-36 -42 -62 -58q-32 -20 -81 -20q-55 -1 -97 27q-45 28 -63 78q-31 87 -31 193q0 134 65 380q36 37 94 37q63 0 63 -31q0 -3 -7 -30q-17 -66 -50 -198q-25 -107 -21 -211q1 -38 20 -67q7 -11 17 -15t28 1q71 20 105 105q61 153 61 334q0 57 -6 113
q67 24 82 24q31 0 41 -31z" />
    <glyph glyph-name="yacute" unicode="&#xfd;" horiz-adv-x="648" 
d="M679 736q-140 -174 -292 -403q-17 -26 -265 -414q-11 -10 -24 -10q-15 0 -38 15q-31 20 -36 22l-23 23q28 63 98 182l118 199l-216 283v18q60 35 81 46q44 22 85 35q97 -117 153 -242q95 164 166 273q33 -1 97 -4q52 -4 96 -23zM530 878q-45 -34 -233 -101
q-7 -3 -29.5 13.5t-22.5 25.5q0 18 85 79q96 69 114 69t52.5 -34.5t34.5 -48.5q0 -2 -1 -3z" />
    <glyph glyph-name="thorn" unicode="&#xfe;" horiz-adv-x="633" 
d="M394 460q0 24 -33 37q-26 10 -54 10q-16 0 -28 -3q-55 -13 -74 -32q-9 -9 -21 -63q-14 -65 -17 -145q80 21 147 71q80 60 80 125zM271 630q50 10 99 10q183 0 183 -141q0 -36 -10 -63q-56 -153 -221 -254l-173 -62q-11 -40 -10 -105v-15l-138 -4v24q0 151 31 331h-1
q36 253 129 423q17 8 84 1q74 -8 95 -30q-24 -30 -68 -115z" />
    <glyph glyph-name="ydieresis" unicode="&#xff;" horiz-adv-x="664" 
d="M511 827q-24 -28 -64 -28q-14 0 -28 4q-39 15 -51 44q-1 8 -1 15q0 32 21 53q23 38 67 38q41 0 56 -38q11 -27 11 -48q0 -22 -11 -40zM272 917q4 -18 4 -35q0 -93 -86 -84q-36 12 -48 44q-3 11 -3 21q0 31 24 57t55 26q41 0 54 -29zM679 736q-140 -174 -292 -403
q-17 -26 -265 -414q-11 -10 -24 -10q-15 0 -38 15q-31 20 -36 22l-23 23q28 63 98 182l118 199l-216 283v18q60 35 81 46q44 22 85 35q97 -117 153 -242q95 164 166 273q33 -1 97 -4q52 -4 96 -23z" />
    <glyph glyph-name="Amacron" unicode="&#x100;" 
d="M510 11q-34 -22 -97 -20q-25 35 -58 133l-3 9l-9 -1q-102 -11 -179 -37l-6 -2l-2 -6q-7 -34 -26 -92q-14 -26 -52 -25q-35 1 -80 7q16 143 77 350q25 86 112 353q5 7 42 10q34 3 46 1q18 -26 55 -97q106 -241 180 -583zM294 275l-1 9q-2 15 -37 168l-9 39l-12 -39
q-21 -69 -44 -183l-3 -15l16 3q23 4 82 15zM326 851q-2 -12 -8 -23q-21 -48 -65 -54q-40 -4 -66 28q-7 8 -24 44q-5 10 -29 9q-16 0 -36 -5q-6 -1 -1 -20q5 -20 21 -41q19 -25 47 -41q34 -19 77 -20q75 0 123 51q24 23 39 59q8 18 6 25q-5 11 -46 8q-13 0 -23 -2
q-11 -2 -13 -6q0 1 -2 -12z" />
    <glyph glyph-name="amacron" unicode="&#x101;" 
d="M510 11q-34 -22 -97 -20q-25 35 -58 133l-3 9l-9 -1q-102 -11 -179 -37l-6 -2l-2 -6q-7 -34 -26 -92q-14 -26 -52 -25q-35 1 -80 7q16 143 77 350q25 86 112 353q5 7 42 10q34 3 46 1q18 -26 55 -97q106 -241 180 -583zM294 275l-1 9q-2 15 -37 168l-9 39l-12 -39
q-21 -69 -44 -183l-3 -15l16 3q23 4 82 15zM326 851q-2 -12 -8 -23q-21 -48 -65 -54q-40 -4 -66 28q-7 8 -24 44q-5 10 -29 9q-16 0 -36 -5q-6 -1 -1 -20q5 -20 21 -41q19 -25 47 -41q34 -19 77 -20q75 0 123 51q24 23 39 59q8 18 6 25q-5 11 -46 8q-13 0 -23 -2
q-11 -2 -13 -6q0 1 -2 -12z" />
    <glyph glyph-name="Abreve" unicode="&#x102;" 
d="M510 11q-34 -22 -97 -20q-25 35 -58 133l-3 9l-9 -1q-102 -11 -179 -37l-6 -2l-2 -6q-7 -34 -26 -92q-14 -26 -52 -25q-35 1 -80 7q16 143 77 350q25 86 112 353q5 7 42 10q34 3 46 1q18 -26 55 -97q106 -241 180 -583zM294 275l-1 9q-2 15 -37 168l-9 39l-12 -39
q-21 -69 -44 -183l-3 -15l16 3q23 4 82 15zM326 851q-2 -12 -8 -23q-21 -48 -65 -54q-40 -4 -66 28q-7 8 -24 44q-5 10 -29 9q-16 0 -36 -5q-6 -1 -1 -20q5 -20 21 -41q19 -25 47 -41q34 -19 77 -20q75 0 123 51q24 23 39 59q8 18 6 25q-5 11 -46 8q-13 0 -23 -2
q-11 -2 -13 -6q0 1 -2 -12z" />
    <glyph glyph-name="abreve" unicode="&#x103;" horiz-adv-x="544" 
d="M510 11q-34 -22 -97 -20q-25 35 -58 133l-3 9l-9 -1q-102 -11 -179 -37l-6 -2l-2 -6q-7 -34 -26 -92q-14 -26 -52 -25q-35 1 -80 7q16 143 77 350q25 86 112 353q5 7 42 10q34 3 46 1q18 -26 55 -97q106 -241 180 -583zM294 275l-1 9q-2 15 -37 168l-9 39l-12 -39
q-21 -69 -44 -183l-3 -15l16 3q23 4 82 15zM326 851q-2 -12 -8 -23q-21 -48 -65 -54q-40 -4 -66 28q-7 8 -24 44q-5 10 -29 9q-16 0 -36 -5q-6 -1 -1 -20q5 -20 21 -41q19 -25 47 -41q34 -19 77 -20q75 0 123 51q24 23 39 59q8 18 6 25q-5 11 -46 8q-13 0 -23 -2
q-11 -2 -13 -6q0 1 -2 -12z" />
    <glyph glyph-name="Aogonek" unicode="&#x104;" horiz-adv-x="566" 
d="M324 266q-14 48 -56 170l-25 66l-17 -69q-13 -48 -37 -173l-4 -26l26 1q16 1 113 31zM427 20h-14q-25 35 -58 133l-3 9l-9 -1q-102 -11 -179 -37l-6 -2l-2 -6q-7 -34 -26 -92q-14 -26 -52 -25q-35 1 -80 7q16 143 77 350q25 86 112 353q5 7 42 10q34 3 46 1
q18 -26 55 -97q106 -241 180 -583q-27 -18 -74 -20q9 -1 25 1q6 -20 9 -31q0 -11 -2 -25q-14 -5 -48 -13q-22 -10 -23 -24q2 -21 31 -31q26 -7 70 8q9 -24 1 -44q-11 -5 -33 -7q-48 -2 -84 16q-42 21 -48 56q2 18 16 27q8 6 30 14.5t32 16.5q3 3 4 12q-6 22 1 23q4 0 10 1z
" />
    <glyph glyph-name="aogonek" unicode="&#x105;" horiz-adv-x="544" 
d="M298 275l-1 9q-2 15 -37 168l-9 39l-12 -39q-21 -69 -44 -183l-3 -15l16 3q23 4 82 15zM368 -30l-1 1q-2 3 -8 28q-11 45 -31 166l-2 12l-11 -3q-31 -6 -127 -28q-11 -4 -22 -43q-14 -56 -34 -122q-64 -4 -124 26l-2 1l1 3q-5 42 98 363q100 289 121 298q17 6 38 6
q23 0 51 -7q109 -201 184 -661q1 -16 -48 -29q-1 -7 -2 -16q-14 -5 -48 -13q-22 -10 -23 -24q2 -21 31 -31q26 -7 70 8q9 -24 1 -44q-11 -5 -33 -7q-48 -2 -84 16q-42 21 -48 56q2 18 16 27q8 6 30 15q4 1 7 2z" />
    <glyph glyph-name="Cacute" unicode="&#x106;" horiz-adv-x="556" 
d="M509 126q-6 -17 -32.5 -44t-44.5 -38q-91 -57 -205 -57q-63 0 -121 42q-106 77 -106 243q0 246 199 383q83 57 157 57q69 0 133 -49q-6 -67 -41 -147l-1 -4q-44 50 -102 50q-44 0 -85 -27q-66 -43 -101 -128q-31 -76 -32 -163q0 -82 66 -110q24 -10 50 -10q56 0 115 39
q51 34 90 86q41 -54 61 -123zM444 910q-45 -34 -233 -101q-7 -3 -29.5 13.5t-22.5 25.5q0 18 85 79q96 69 114 69t52.5 -34.5t34.5 -48.5q0 -2 -1 -3z" />
    <glyph glyph-name="cacute" unicode="&#x107;" horiz-adv-x="492" 
d="M472 667q-2 -31 -13 -78q-8 -34 -16 -55q-64 26 -96 26q-22 0 -43 -8q-76 -30 -122.5 -102t-46.5 -155q0 -111 74 -145q37 -17 86 -17q36 0 66 12q14 6 60 27q-2 -20 -6 -42q-16 -89 -39 -108q-48 -30 -110 -30q-120 0 -194 78.5t-74 199.5q0 94 41 186q53 118 196 195
q65 35 133 35q51 0 104 -19zM425 878q-45 -34 -233 -101q-7 -3 -29.5 13.5t-22.5 25.5q0 18 85 79q96 69 114 69t52.5 -34.5t34.5 -48.5q0 -2 -1 -3z" />
    <glyph glyph-name="Ccircumflex" unicode="&#x108;" horiz-adv-x="556" 
d="M509 126q-6 -17 -32.5 -44t-44.5 -38q-91 -57 -205 -57q-63 0 -121 42q-106 77 -106 243q0 246 199 383q83 57 157 57q69 0 133 -49q-6 -67 -41 -147l-1 -4q-44 50 -102 50q-44 0 -85 -27q-66 -43 -101 -128q-31 -76 -32 -163q0 -82 66 -110q24 -10 50 -10q56 0 115 39
q51 34 90 86q41 -54 61 -123zM354 787q0 -7 -11 -19t-15 -10q-12 6 -34 28q-24 24 -35 31q-29 -25 -77 -59q-4 -2 -15 10t-11 19q0 1 47 61q28 37 49 48q3 1 6 0q14 -7 56 -53q40 -44 40 -56z" />
    <glyph glyph-name="ccircumflex" unicode="&#x109;" horiz-adv-x="492" 
d="M472 667q-2 -31 -13 -78q-8 -34 -16 -55q-64 26 -96 26q-22 0 -43 -8q-76 -30 -122.5 -102t-46.5 -155q0 -111 74 -145q37 -17 86 -17q36 0 66 12q14 6 60 27q-2 -20 -6 -42q-16 -89 -39 -108q-48 -30 -110 -30q-120 0 -194 78.5t-74 199.5q0 94 41 186q53 118 196 195
q65 35 133 35q51 0 104 -19zM334 755q0 -7 -11 -19t-15 -10q-12 6 -34 28q-24 24 -35 31q-29 -25 -77 -59q-4 -2 -15 10t-11 19q0 1 47 61q28 37 49 48q3 1 6 0q14 -7 56 -53q40 -44 40 -56z" />
    <glyph glyph-name="Cdotaccent" unicode="&#x10a;" horiz-adv-x="556" 
d="M509 126q-6 -17 -32.5 -44t-44.5 -38q-91 -57 -205 -57q-63 0 -121 42q-106 77 -106 243q0 246 199 383q83 57 157 57q69 0 133 -49q-6 -67 -41 -147l-1 -4q-44 50 -102 50q-44 0 -85 -27q-66 -43 -101 -128q-31 -76 -32 -163q0 -82 66 -110q24 -10 50 -10q56 0 115 39
q51 34 90 86q41 -54 61 -123zM390 874q3 -11 3 -21q0 -58 -65 -52q-38 10 -38 40q0 19 18 35t42 16q31 0 40 -18z" />
    <glyph glyph-name="cdotaccent" unicode="&#x10b;" horiz-adv-x="492" 
d="M472 667q-2 -31 -13 -78q-8 -34 -16 -55q-64 26 -96 26q-22 0 -43 -8q-76 -30 -122.5 -102t-46.5 -155q0 -111 74 -145q37 -17 86 -17q36 0 66 12q14 6 60 27q-2 -20 -6 -42q-16 -89 -39 -108q-48 -30 -110 -30q-120 0 -194 78.5t-74 199.5q0 94 41 186q53 118 196 195
q65 35 133 35q51 0 104 -19zM363 856q3 -11 3 -21q0 -58 -65 -52q-38 10 -38 40q0 19 18 35t42 16q31 0 40 -18z" />
    <glyph glyph-name="Ccaron" unicode="&#x10c;" horiz-adv-x="556" 
d="M509 126q-6 -17 -32.5 -44t-44.5 -38q-91 -57 -205 -57q-63 0 -121 42q-106 77 -106 243q0 246 199 383q83 57 157 57q69 0 133 -49q-6 -67 -41 -147l-1 -4q-44 50 -102 50q-44 0 -85 -27q-66 -43 -101 -128q-31 -76 -32 -163q0 -82 66 -110q24 -10 50 -10q56 0 115 39
q51 34 90 86q41 -54 61 -123zM409 825q-71 -48 -94 -57q-9 -7 -17 -3q-28 18 -72 54q-99 78 -98 89l37 37t38 35q55 -69 111 -127q33 38 59 69q33 39 57 57q24 -28 35 -44t21 -35q-10 -17 -77 -75z" />
    <glyph glyph-name="ccaron" unicode="&#x10d;" horiz-adv-x="492" 
d="M472 667q-2 -31 -13 -78q-8 -34 -16 -55q-64 26 -96 26q-22 0 -43 -8q-76 -30 -122.5 -102t-46.5 -155q0 -111 74 -145q37 -17 86 -17q36 0 66 12q14 6 60 27q-2 -20 -6 -42q-16 -89 -39 -108q-48 -30 -110 -30q-120 0 -194 78.5t-74 199.5q0 94 41 186q53 118 196 195
q65 35 133 35q51 0 104 -19zM358 806q-71 -48 -94 -57q-9 -7 -17 -3q-28 18 -72 54q-99 78 -98 89l37 37t38 35q55 -69 111 -127q33 38 59 69q33 39 57 57q24 -28 35 -44t21 -35q-10 -17 -77 -75z" />
    <glyph glyph-name="Dcaron" unicode="&#x10e;" horiz-adv-x="682" 
d="M628 449q0 -156 -173 -293q-194 -154 -444 -178q-14 90 -5 251q8 142 48 400q82 65 211 65q138 0 252 -65q58 -33 84.5 -73t26.5 -107zM383 424q0 61 -33.5 96.5t-94.5 37.5q-7 0 -89 -10l-8 -1l-1 -8q-13 -106 -20 -199q-3 -67 -14 -202l-2 -18l17 7q81 33 147 96
q98 93 98 201zM354 816q-71 -48 -94 -57q-9 -7 -17 -3q-28 18 -72 54q-99 78 -98 89l37 37t38 35q55 -69 111 -127q33 38 59 69q33 39 57 57q24 -28 35 -44t21 -35q-10 -17 -77 -75z" />
    <glyph glyph-name="dcaron" unicode="&#x10f;" horiz-adv-x="900" 
d="M628 449q0 -156 -173 -293q-194 -154 -444 -178q-14 90 -5 251q8 142 48 400q82 65 211 65q138 0 252 -65q58 -33 84.5 -73t26.5 -107zM383 424q0 61 -33.5 96.5t-94.5 37.5q-7 0 -89 -10l-8 -1l-1 -8q-13 -106 -20 -199q-3 -67 -14 -202l-2 -18l17 7q81 33 147 96
q98 93 98 201zM791 581q-20 -99 -70 -99q-2 0 -2 4q0 6 5.5 23t5.5 25q0 13 -14 9q-30 0 -50.5 21.5t-20.5 51.5q0 29 18.5 49t47.5 20q26 0 51 -16q31 -20 31 -65q0 -13 -2 -23z" />
    <glyph glyph-name="Dcoroat" unicode="&#x110;" horiz-adv-x="760" 
d="M428 444q-3 54 -33 87q-34 35 -95 37q-7 0 -89 -10l-8 -1l-1 -8q-8 -62 -13 -119l61 5q78 6 178 9zM68 419q12 97 31 220q82 65 211 65q138 0 252 -65q58 -33 84.5 -73t26.5 -107q0 -156 -173 -293q-194 -154 -444 -178q-14 90 -5 251q3 49 9 112q-16 0 -34 1
q-11 3 -29 17q0 20 4 25q13 11 25 21zM182 347q-3 -67 -14 -199l-2 -18l17 7q81 33 147 96q59 56 82 117q-83 -4 -148 -4q-35 0 -82 1z" />
    <glyph glyph-name="dcroat" unicode="&#x111;" horiz-adv-x="571" 
d="M317 483q-6 85 -84 84q-40 0 -92 -21l-5 -2l-2 -6q-5 -31 -9 -68l60 5q60 4 132 8zM307 388q-60 -2 -108 -2q-34 0 -78 1q-1 -24 -1 -49q0 -112 7 -175l2 -18l15 10q70 47 122 139q28 48 41 94zM2 459q2 82 6 200q157 35 221 35q150 0 226 -119q26 -41 26 -97v-19
q0 -5 -2 -11q-7 -75 -52 -165q-41 -82 -76 -121q-129 -142 -314 -177q-17 -1 -22 18q0 1 -4 34q-12 112 -12 271q0 30 1 83q-19 0 -39 1q-11 3 -29 17q0 20 4 25q13 11 25 21z" />
    <glyph glyph-name="Emacron" unicode="&#x112;" horiz-adv-x="492" 
d="M456 687q5 -28 -8 -68t-33 -62q-118 -7 -211 -17l-9 -1l-1 -9q0 -5 -14 -60q-10 -40 -3 -57l3 -7h7q13 0 47 2q45 3 68 4q61 3 98 -6q3 -15 3 -32q0 -29 -8 -65q-41 -9 -116 -17q-56 -6 -112 -14l-7 -1l-2 -7q-12 -44 -4 -120l1 -9l10 -1q19 -2 131 12q32 4 60 4
q33 0 59 -6q-1 -19 -6 -69q-6 -44 -33 -49q-73 -14 -170 -22l-168 -15q-16 3 -27.5 16.5t-11.5 30.5q5 184 25 316q24 155 78 293q142 31 354 36zM440 750q-100 -10 -149 -10q-22 0 -66.5 0.5t-67.5 0.5q-8 2 -22 10q-1 13 3 17l17 13l122 15q33 4 122 10h15q39 0 39 -17
q0 -8 -6 -20q-6 -13 -7 -19z" />
    <glyph glyph-name="emacron" unicode="&#x113;" horiz-adv-x="478" 
d="M452 41q-109 -33 -209 -45q-35 -3 -141 -16q-24 -3 -55 9q-36 14 -38 36q-11 118 -11 250q0 178 25 377q4 28 31 29q187 8 349 -9q15 -37 15 -56q0 -6 -5 -50q-54 -16 -139 -17q-97 -2 -134 -8q-5 -73 -5 -82q0 -41 10 -54q36 -1 116 1q77 2 112 -6q7 -28 7 -58t-7 -55
q-95 -6 -241 -16q0 12 -2 -69q-1 -53 4 -64q50 0 146 7l148 11q25 -48 24 -115zM371 734q-100 -10 -149 -10q-22 0 -66.5 0.5t-67.5 0.5q-8 2 -22 10q-1 13 3 17l17 13l122 15q33 4 122 10h15q39 0 39 -17q0 -8 -6 -20q-6 -13 -7 -19z" />
    <glyph glyph-name="ebreve" unicode="&#x114;" horiz-adv-x="492" 
d="M456 687q5 -28 -8 -68t-33 -62q-118 -7 -211 -17l-9 -1l-1 -9q0 -5 -14 -60q-10 -40 -3 -57l3 -7h7q13 0 47 2q45 3 68 4q61 3 98 -6q3 -15 3 -32q0 -29 -8 -65q-41 -9 -116 -17q-56 -6 -112 -14l-7 -1l-2 -7q-12 -44 -4 -120l1 -9l10 -1q19 -2 131 12q32 4 60 4
q33 0 59 -6q-1 -19 -6 -69q-6 -44 -33 -49q-73 -14 -170 -22l-168 -15q-16 3 -27.5 16.5t-11.5 30.5q5 184 25 316q24 155 78 293q142 31 354 36zM324 844q-2 -12 -8 -23q-16 -35 -44 -37q-40 -2 -53 30q-7 8 -24 44q-5 10 -29 9q-16 0 -50 -25q-6 -1 -8 -20q5 -20 22 -44
q22 -29 48 -45q41 -26 82 -26q77 3 130 56q28 35 33 53q8 19 7 28q-8 18 -48 25q-13 0 -36 1q-18 -10 -20 -14q0 1 -2 -12z" />
    <glyph glyph-name="ebreve" unicode="&#x115;" horiz-adv-x="478" 
d="M452 41q-109 -33 -209 -45q-35 -3 -141 -16q-24 -3 -55 9q-36 14 -38 36q-11 118 -11 250q0 178 25 377q4 28 31 29q187 8 349 -9q15 -37 15 -56q0 -6 -5 -50q-54 -16 -139 -17q-97 -2 -134 -8q-5 -73 -5 -82q0 -41 10 -54q36 -1 116 1q77 2 112 -6q7 -28 7 -58t-7 -55
q-95 -6 -241 -16q0 12 -2 -69q-1 -53 4 -64q50 0 146 7l148 11q25 -48 24 -115zM290 891q-2 -12 -8 -23q-16 -35 -44 -37q-40 -2 -53 30q-7 8 -24 44q-5 10 -29 9q-16 0 -50 -25q-6 -1 -8 -20q5 -20 22 -44q22 -29 48 -45q41 -26 82 -26q77 3 130 56q28 35 33 53q8 19 7 28
q-8 18 -48 25q-13 0 -36 1q-18 -10 -20 -14q0 1 -2 -12z" />
    <glyph glyph-name="Edotaccent" unicode="&#x116;" horiz-adv-x="492" 
d="M456 687q5 -28 -8 -68t-33 -62q-118 -7 -211 -17l-9 -1l-1 -9q0 -5 -14 -60q-10 -40 -3 -57l3 -7h7q13 0 47 2q45 3 68 4q61 3 98 -6q3 -15 3 -32q0 -29 -8 -65q-41 -9 -116 -17q-56 -6 -112 -14l-7 -1l-2 -7q-12 -44 -4 -120l1 -9l10 -1q19 -2 131 12q32 4 60 4
q33 0 59 -6q-1 -19 -6 -69q-6 -44 -33 -49q-73 -14 -170 -22l-168 -15q-16 3 -27.5 16.5t-11.5 30.5q5 184 25 316q24 155 78 293q142 31 354 36zM318 787q3 -11 3 -21q0 -58 -65 -52q-38 10 -38 40q0 19 18 35t42 16q31 0 40 -18z" />
    <glyph glyph-name="edotaccent" unicode="&#x117;" horiz-adv-x="478" 
d="M452 41q-109 -33 -209 -45q-35 -3 -141 -16q-24 -3 -55 9q-36 14 -38 36q-11 118 -11 250q0 178 25 377q4 28 31 29q187 8 349 -9q15 -37 15 -56q0 -6 -5 -50q-54 -16 -139 -17q-97 -2 -134 -8q-5 -73 -5 -82q0 -41 10 -54q36 -1 116 1q77 2 112 -6q7 -28 7 -58t-7 -55
q-95 -6 -241 -16q0 12 -2 -69q-1 -53 4 -64q50 0 146 7l148 11q25 -48 24 -115zM280 800q3 -11 3 -21q0 -58 -65 -52q-38 10 -38 40q0 19 18 35t42 16q31 0 40 -18z" />
    <glyph glyph-name="Eogonek" unicode="&#x118;" horiz-adv-x="492" 
d="M237 13q-15 -2 -31 -3l-168 -15q-16 3 -27.5 16.5t-11.5 30.5q5 184 25 316q24 155 78 293q142 31 354 36q5 -28 -8 -68t-33 -62q-118 -7 -211 -17l-9 -1l-1 -9q0 -5 -14 -60q-10 -40 -3 -57l3 -7h7q13 0 47 2q45 3 68 4q61 3 98 -6q3 -15 3 -32q0 -29 -8 -65
q-41 -9 -116 -17q-56 -6 -112 -14l-7 -1l-2 -7q-12 -44 -4 -120l1 -9l10 -1q19 -2 131 12q32 4 60 4q33 0 59 -6q-1 -19 -6 -69q-6 -44 -33 -49q-41 -8 -90 -14q5 -17 8 -27q0 -11 -2 -25q-14 -5 -48 -13q-22 -10 -23 -24q2 -21 31 -31q26 -7 70 8q9 -24 1 -44
q-11 -5 -33 -7q-48 -2 -84 16q-42 21 -48 56q2 18 16 27q8 6 30 14.5t32 16.5q3 3 4 12q-3 10 -3 16z" />
    <glyph glyph-name="eogonek" unicode="&#x119;" horiz-adv-x="478" 
d="M249 3q-39 -4 -128 -15q-24 -3 -55 9q-36 14 -38 36q-11 118 -11 250q0 178 25 377q4 28 31 29q187 8 349 -9q15 -37 15 -56q0 -6 -5 -50q-54 -16 -139 -17q-97 -2 -134 -8q-5 -73 -5 -82q0 -41 10 -54q36 -1 116 1q77 2 112 -6q7 -28 7 -58t-7 -55q-95 -6 -241 -16
q0 12 -2 -69q-1 -53 4 -64q50 0 146 7l148 11q25 -48 24 -115q-89 -27 -173 -40q5 -17 8 -27q0 -11 -2 -25q-14 -5 -48 -13q-22 -10 -23 -24q2 -21 31 -31q26 -7 70 8q9 -24 1 -44q-11 -5 -33 -7q-48 -2 -84 16q-42 21 -48 56q2 18 16 27q8 6 30 14.5t32 16.5q3 3 4 12
q-3 9 -3 15z" />
    <glyph glyph-name="Ecaron" unicode="&#x11a;" horiz-adv-x="492" 
d="M456 687q5 -28 -8 -68t-33 -62q-118 -7 -211 -17l-9 -1l-1 -9q0 -5 -14 -60q-10 -40 -3 -57l3 -7h7q13 0 47 2q45 3 68 4q61 3 98 -6q3 -15 3 -32q0 -29 -8 -65q-41 -9 -116 -17q-56 -6 -112 -14l-7 -1l-2 -7q-12 -44 -4 -120l1 -9l10 -1q19 -2 131 12q32 4 60 4
q33 0 59 -6q-1 -19 -6 -69q-6 -44 -33 -49q-73 -14 -170 -22l-168 -15q-16 3 -27.5 16.5t-11.5 30.5q5 184 25 316q24 155 78 293q142 31 354 36zM313 782q-71 -48 -94 -57q-9 -7 -17 -3q-28 18 -72 54q-99 78 -98 89l37 37t38 35q55 -69 111 -127q33 38 59 69q33 39 57 57
q24 -28 35 -44t21 -35q-10 -17 -77 -75z" />
    <glyph glyph-name="ecaron" unicode="&#x11b;" horiz-adv-x="478" 
d="M452 41q-109 -33 -209 -45q-35 -3 -141 -16q-24 -3 -55 9q-36 14 -38 36q-11 118 -11 250q0 178 25 377q4 28 31 29q187 8 349 -9q15 -37 15 -56q0 -6 -5 -50q-54 -16 -139 -17q-97 -2 -134 -8q-5 -73 -5 -82q0 -41 10 -54q36 -1 116 1q77 2 112 -6q7 -28 7 -58t-7 -55
q-95 -6 -241 -16q0 12 -2 -69q-1 -53 4 -64q50 0 146 7l148 11q25 -48 24 -115zM293 815q-71 -48 -94 -57q-9 -7 -17 -3q-28 18 -72 54q-99 78 -98 89l37 37t38 35q55 -69 111 -127q33 38 59 69q33 39 57 57q24 -28 35 -44t21 -35q-10 -17 -77 -75z" />
    <glyph glyph-name="Gcircumflex" unicode="&#x11c;" horiz-adv-x="646" 
d="M560 334q31 -65 31 -150q0 -102 -57 -149q-88 -73 -214 -73q-173 0 -263 153q-53 90 -57 203q-8 202 188 335q108 73 212 73q79 0 155 -41q3 -5 0 -16q-20 -72 -58 -119q-30 18 -86 18q-47 0 -66 -9q-84 -39 -133 -128q-47 -84 -47 -181q0 -55 18 -100q24 -60 80 -68
q47 -7 93 11q68 27 78 100q-2 -1 -46 -8q-32 -5 -53 -5q-35 0 -45 18q-7 12 -7 49q0 56 26 66q51 10 125 14q63 4 126 7zM430 823q0 -7 -11 -19t-15 -10q-12 6 -34 28q-24 24 -35 31q-29 -25 -77 -59q-4 -2 -15 10t-11 19q0 1 47 61q28 37 49 48q3 1 6 0q14 -7 56 -53
q40 -44 40 -56z" />
    <glyph glyph-name="gcircumflex" unicode="&#x11d;" horiz-adv-x="609" 
d="M532 44q-85 -91 -259 -81q-91 5 -165 81q-67 69 -93 163q-15 54 -15 104q0 153 106 266q128 137 355 137q18 0 15 -16q2 -20 -17 -78q-21 -62 -36 -66q-71 -19 -133 -60q-70 -46 -102 -103q-48 -85 -48 -169q0 -57 33 -88t90 -31q71 0 146 48q14 16 14 37q0 12 -6 19
q-96 -16 -127 -16q-27 0 -32 9q-8 44 -8 63q0 44 28 60q122 22 202 22q21 0 42 -1q27 -56 27 -144q0 -72 -17 -156zM438 821q0 -7 -11 -19t-15 -10q-12 6 -34 28q-24 24 -35 31q-29 -25 -77 -59q-4 -2 -15 10t-11 19q0 1 47 61q28 37 49 48q3 1 6 0q14 -7 56 -53
q40 -44 40 -56z" />
    <glyph glyph-name="Gbreve" unicode="&#x11e;" horiz-adv-x="646" 
d="M560 334q31 -65 31 -150q0 -102 -57 -149q-88 -73 -214 -73q-173 0 -263 153q-53 90 -57 203q-8 202 188 335q108 73 212 73q79 0 155 -41q3 -5 0 -16q-20 -72 -58 -119q-30 18 -86 18q-47 0 -66 -9q-84 -39 -133 -128q-47 -84 -47 -181q0 -55 18 -100q24 -60 80 -68
q47 -7 93 11q68 27 78 100q-2 -1 -46 -8q-32 -5 -53 -5q-35 0 -45 18q-7 12 -7 49q0 56 26 66q51 10 125 14q63 4 126 7zM438 923q-2 -12 -8 -23q-16 -35 -44 -37q-40 -2 -53 30q-7 8 -24 44q-5 10 -29 9q-16 0 -50 -25q-6 -1 -8 -20q5 -20 22 -44q22 -29 48 -45
q41 -26 82 -26q77 3 130 56q28 35 33 53q8 19 7 28q-8 18 -48 25q-13 0 -36 1q-18 -10 -20 -14q0 1 -2 -12z" />
    <glyph glyph-name="gbreve" unicode="&#x11f;" horiz-adv-x="609" 
d="M532 44q-85 -91 -259 -81q-91 5 -165 81q-67 69 -93 163q-15 54 -15 104q0 153 106 266q128 137 355 137q18 0 15 -16q2 -20 -17 -78q-21 -62 -36 -66q-71 -19 -133 -60q-70 -46 -102 -103q-48 -85 -48 -169q0 -57 33 -88t90 -31q71 0 146 48q14 16 14 37q0 12 -6 19
q-96 -16 -127 -16q-27 0 -32 9q-8 44 -8 63q0 44 28 60q122 22 202 22q21 0 42 -1q27 -56 27 -144q0 -72 -17 -156zM431 919q-2 -12 -8 -23q-16 -35 -44 -37q-40 -2 -53 30q-7 8 -24 44q-5 10 -29 9q-16 0 -50 -25q-6 -1 -8 -20q5 -20 22 -44q22 -29 48 -45q41 -26 82 -26
q77 3 130 56q28 35 33 53q8 19 7 28q-8 18 -48 25q-13 0 -36 1q-18 -10 -20 -14q0 1 -2 -12z" />
    <glyph glyph-name="Gdotaccent" unicode="&#x120;" horiz-adv-x="646" 
d="M560 334q31 -65 31 -150q0 -102 -57 -149q-88 -73 -214 -73q-173 0 -263 153q-53 90 -57 203q-8 202 188 335q108 73 212 73q79 0 155 -41q3 -5 0 -16q-20 -72 -58 -119q-30 18 -86 18q-47 0 -66 -9q-84 -39 -133 -128q-47 -84 -47 -181q0 -55 18 -100q24 -60 80 -68
q47 -7 93 11q68 27 78 100q-2 -1 -46 -8q-32 -5 -53 -5q-35 0 -45 18q-7 12 -7 49q0 56 26 66q51 10 125 14q63 4 126 7zM411 874q3 -11 3 -21q0 -58 -65 -52q-38 10 -38 40q0 19 18 35t42 16q31 0 40 -18z" />
    <glyph glyph-name="gdotaccent" unicode="&#x121;" horiz-adv-x="609" 
d="M532 44q-85 -91 -259 -81q-91 5 -165 81q-67 69 -93 163q-15 54 -15 104q0 153 106 266q128 137 355 137q18 0 15 -16q2 -20 -17 -78q-21 -62 -36 -66q-71 -19 -133 -60q-70 -46 -102 -103q-48 -85 -48 -169q0 -57 33 -88t90 -31q71 0 146 48q14 16 14 37q0 12 -6 19
q-96 -16 -127 -16q-27 0 -32 9q-8 44 -8 63q0 44 28 60q122 22 202 22q21 0 42 -1q27 -56 27 -144q0 -72 -17 -156zM357 842q3 -11 3 -21q0 -58 -65 -52q-38 10 -38 40q0 19 18 35t42 16q31 0 40 -18z" />
    <glyph glyph-name="Gcommaaccent" unicode="&#x122;" horiz-adv-x="604" 
d="M232 -31q-67 16 -124 75q-67 69 -93 163q-15 54 -15 104q0 153 106 266q128 137 355 137q18 0 15 -16q2 -20 -17 -78q-21 -62 -36 -66q-71 -19 -133 -60q-70 -46 -102 -103q-48 -85 -48 -169q0 -57 33 -88t90 -31q71 0 146 48q14 16 14 37q0 12 -6 19q-96 -16 -127 -16
q-27 0 -32 9q-8 44 -8 63q0 44 28 60q122 22 202 22q21 0 42 -1q27 -56 27 -144q0 -72 -17 -156q-81 -87 -242 -82l-2 -4q1 -7 5 -9q11 -6 36.5 -12.5t33.5 -10.5q16 -8 19 -21q-6 -27 -55 -43q-42 -15 -97 -13q-25 2 -38 5q-9 16 2 34q50 -11 80 -6q33 8 36 24
q-2 11 -27 18q-40 7 -56 11q-2 10 -2 19q3 6 7 15z" />
    <glyph glyph-name="gcommaaccent" unicode="&#x123;" horiz-adv-x="598" 
d="M532 44q-85 -91 -259 -81q-91 5 -165 81q-67 69 -93 163q-15 54 -15 104q0 153 106 266q128 137 355 137q18 0 15 -16q2 -20 -17 -78q-21 -62 -36 -66q-71 -19 -133 -60q-70 -46 -102 -103q-48 -85 -48 -169q0 -57 33 -88t90 -31q71 0 146 48q14 16 14 37q0 12 -6 19
q-96 -16 -127 -16q-27 0 -32 9q-8 44 -8 63q0 44 28 60q122 22 202 22q21 0 42 -1q27 -56 27 -144q0 -72 -17 -156zM241 796v8q-1 41 32 84q29 39 46 39q5 0 1 -10q-2 -6 -12 -25q-22 -43 -23 -61q6 5 14 6q10 1 18 -5q22 -14 19 -60q-2 -21 -15 -33q-12 -11 -32 -11
q-16 0 -32 18q-15 18 -15 40q0 4 -1 10z" />
    <glyph glyph-name="Hcircumflex" unicode="&#x124;" horiz-adv-x="575" 
d="M518 666q-22 -274 -96 -680q-15 -10 -44 -9q-12 1 -55 7q-9 53 -9 128q0 21 1 69t1 70v11l-11 1q-76 7 -135 -10l-7 -2l-2 -7q-10 -78 -32 -223q-41 -16 -81 -16q-20 0 -36 5q-8 5 -10 12l25 340q19 191 62 335q32 16 82 16q18 0 38 -2q-1 -56 -12 -155q-5 -42 -8.5 -89
t-4.5 -52l-1 -9l10 -2q54 -11 124 -3l9 1l1 9q20 176 44 266q6 14 44 14q20 0 33 -4q49 -6 70 -21zM411 829q0 -7 -11 -19t-15 -10q-12 6 -34 28q-24 24 -35 31q-29 -25 -77 -59q-4 -2 -15 10t-11 19q0 1 47 61q28 37 49 48q3 1 6 0q14 -7 56 -53q40 -44 40 -56z" />
    <glyph glyph-name="hcircumflex" unicode="&#x125;" horiz-adv-x="557" 
d="M496 633q-22 -157 -36 -366l-25 -367q-30 -6 -64 -6q-33 0 -70 6q-2 170 13 316q-30 5 -61 5q-35 0 -72 -6q-1 -4 -8.5 -4t-8.5 -4l-38 -215q-15 -4 -36 -4q-39 0 -87 14q-2 123 14 249q19 154 109 467q3 9 54 18q44 8 64 8q24 0 22 -8q-26 -133 -60 -337q42 -2 72 -2
q48 0 68 5q15 109 47 266q48 26 103 27q6 -18 0 -62zM451 866q0 -7 -11 -19t-15 -10q-12 6 -34 28q-24 24 -35 31q-29 -25 -77 -59q-4 -2 -15 10t-11 19q0 1 47 61q28 37 49 48q3 1 6 0q14 -7 56 -53q40 -44 40 -56z" />
    <glyph glyph-name="Hbar" unicode="&#x126;" horiz-adv-x="575" 
d="M340 516q-38 -1 -71 -1t-76 1q-3 -24 -4 -49q-4 -47 -5 -52l-1 -9l10 -2q54 -11 124 -3l9 1l1 9q6 57 13 105zM356 610q7 38 15 67q6 14 44 14q20 0 33 -4q49 -6 70 -21q-2 -26 -5 -52q38 -5 38 -26q0 -11 -9 -32q-11 -24 -13 -31q-13 -1 -25 -2q-26 -231 -82 -537
q-15 -10 -44 -9q-12 1 -55 7q-9 53 -9 128q0 21 1 69t1 70v11l-11 1q-76 7 -135 -10l-7 -2l-2 -7q-10 -78 -32 -223q-41 -16 -81 -16q-20 0 -36 5q-8 5 -10 12l25 340q8 84 21 158q-8 1 -17 1q-11 3 -29 17q0 20 4 25q13 11 25 21l30 3q12 58 28 110q32 16 82 16q18 0 38 -2
q-1 -43 -7 -112l53 5q46 3 101 6z" />
    <glyph glyph-name="hbar" unicode="&#x127;" horiz-adv-x="557" 
d="M369 544q-54 -2 -99 -2h-40q-11 -66 -24 -143q42 -2 72 -2q48 0 68 5q9 63 23 142zM387 639q3 14 6 29q48 26 103 27q5 -16 1 -53q55 -2 55 -27q0 -11 -9 -32q-11 -24 -13 -31q-23 -1 -45 -3q-15 -126 -25 -282l-25 -367q-30 -6 -64 -6q-33 0 -70 6q-2 170 13 316
q-30 5 -61 5q-35 0 -72 -6q-1 -4 -8.5 -4t-8.5 -4l-38 -215q-15 -4 -36 -4q-39 0 -87 14q-2 123 14 249q13 108 62 295q-23 1 -47 2q-11 3 -29 17q0 20 4 25q13 11 25 21l66 6q13 48 28 101q3 9 54 18q44 8 64 8q24 0 22 -8q-9 -48 -20 -106l10 1q59 4 131 8z" />
    <glyph glyph-name="Itilde" unicode="&#x128;" horiz-adv-x="250" 
d="M181 687q-13 -305 -51 -687q-34 -16 -63 -16q-14 0 -48 11q-10 3 -15 12q-4 52 -4 110q0 125 19 283q8 70 35 271q22 23 59 23q12 0 36 -3zM276 832q-30 -51 -87 -50q-28 0 -65.5 26t-65.5 27q-57 0 -100 -44q-9 12 -7 44q29 80 105 89q29 3 66 -32q39 -38 64 -38
q50 -2 89 30q5 0 5 -17q0 -12 -4 -35z" />
    <glyph glyph-name="itilde" unicode="&#x129;" horiz-adv-x="259" 
d="M198 616q-20 -112 -39 -305q-21 -220 -36 -305q-38 -32 -104 -28q-8 6 -18 32q0 342 42 667l50 10q36 7 59 7q54 0 54 -40q0 -16 -8 -38zM290 840q-30 -51 -87 -50q-28 0 -65.5 26t-65.5 27q-57 0 -100 -44q-9 12 -7 44q29 80 105 89q29 3 66 -32q39 -38 64 -38
q50 -2 89 30q5 0 5 -17q0 -12 -4 -35z" />
    <glyph glyph-name="Imacron" unicode="&#x12a;" horiz-adv-x="250" 
d="M181 687q-13 -305 -51 -687q-34 -16 -63 -16q-14 0 -48 11q-10 3 -15 12q-4 52 -4 110q0 125 19 283q8 70 35 271q22 23 59 23q12 0 36 -3zM269 810q-100 -10 -149 -10q-22 0 -66.5 0.5t-67.5 0.5q-8 2 -22 10q-1 13 3 17l17 13l122 15q33 4 122 10h15q39 0 39 -17
q0 -8 -6 -20q-6 -13 -7 -19z" />
    <glyph glyph-name="imacron" unicode="&#x12b;" horiz-adv-x="259" 
d="M198 616q-20 -112 -39 -305q-21 -220 -36 -305q-38 -32 -104 -28q-8 6 -18 32q0 342 42 667l50 10q36 7 59 7q54 0 54 -40q0 -16 -8 -38zM273 810q-100 -10 -149 -10q-22 0 -66.5 0.5t-67.5 0.5q-8 2 -22 10q-1 13 3 17l17 13l122 15q33 4 122 10h15q39 0 39 -17
q0 -8 -6 -20q-6 -13 -7 -19z" />
    <glyph glyph-name="Ibreve" unicode="&#x12c;" horiz-adv-x="250" 
d="M183 687q-13 -305 -51 -687q-34 -16 -63 -16q-14 0 -48 11q-10 3 -15 12q-4 52 -4 110q0 125 19 283q8 70 35 271q22 23 59 23q12 0 36 -3zM172 929q-2 -12 -8 -23q-16 -35 -44 -37q-40 -2 -53 30q-7 8 -24 44q-5 10 -29 9q-16 0 -50 -25q-6 -1 -8 -20q5 -20 22 -44
q22 -29 48 -45q41 -26 82 -26q77 3 130 56q28 35 33 53q8 19 7 28q-8 18 -48 25q-13 0 -36 1q-18 -10 -20 -14q0 1 -2 -12z" />
    <glyph glyph-name="ibreve" unicode="&#x12d;" horiz-adv-x="259" 
d="M200 616q-20 -112 -39 -305q-21 -220 -36 -305q-38 -32 -104 -28q-8 6 -18 32q0 342 42 667l50 10q36 7 59 7q54 0 54 -40q0 -16 -8 -38zM197 910q-2 -12 -8 -23q-16 -35 -44 -37q-40 -2 -53 30q-7 8 -24 44q-5 10 -29 9q-16 0 -50 -25q-6 -1 -8 -20q5 -20 22 -44
q22 -29 48 -45q41 -26 82 -26q77 3 130 56q28 35 33 53q8 19 7 28q-8 18 -48 25q-13 0 -36 1q-18 -10 -20 -14q0 1 -2 -12z" />
    <glyph glyph-name="Iogonek" unicode="&#x12e;" horiz-adv-x="316" 
d="M107 0q-8 2 -18 5t-15 12q-4 52 -4 110q0 125 19 283q8 70 35 271q22 23 59 23q12 0 36 -3l32 -4q-13 -305 -51 -687q-23 -11 -44 -14q5 -14 7 -23q0 -11 -2 -25q-14 -5 -48 -13q-22 -10 -23 -24q2 -21 31 -31q26 -7 70 8q9 -24 1 -44q-11 -5 -33 -7q-48 -2 -84 16
q-42 21 -48 56q2 18 16 27q8 6 30 14.5t32 16.5q3 3 4 12q-4 16 -2 21z" />
    <glyph glyph-name="iogonek" unicode="&#x12f;" horiz-adv-x="301" 
d="M95 -22q-13 -1 -26 0q-8 6 -18 32q0 342 42 667l50 10q36 7 59 7q54 0 54 -40q0 -16 -8 -38q-20 -112 -39 -305q-21 -220 -36 -305q-13 -11 -30 -18q5 -17 8 -27q0 -11 -2 -25q-14 -5 -48 -13q-22 -10 -23 -24q2 -21 31 -31q26 -7 70 8q9 -24 1 -44q-11 -5 -33 -7
q-48 -2 -84 16q-42 21 -48 56q2 18 16 27q8 6 30 14.5t32 16.5q3 3 4 12q-2 6 -2 11z" />
    <glyph glyph-name="Idotaccent" unicode="&#x130;" horiz-adv-x="250" 
d="M181 687q-13 -305 -51 -687q-34 -16 -63 -16q-14 0 -48 11q-10 3 -15 12q-4 52 -4 110q0 125 19 283q8 70 35 271q22 23 59 23q12 0 36 -3zM175 832q3 -11 3 -21q0 -58 -65 -52q-38 10 -38 40q0 19 18 35t42 16q31 0 40 -18z" />
    <glyph glyph-name="dotlessi" unicode="&#x131;" horiz-adv-x="259" 
d="M198 616q-20 -112 -39 -305q-21 -220 -36 -305q-38 -32 -104 -28q-8 6 -18 32q0 342 42 667l50 10q36 7 59 7q54 0 54 -40q0 -16 -8 -38z" />
    <glyph glyph-name="IJ" unicode="&#x132;" horiz-adv-x="770" 
d="M181 687q-13 -305 -51 -687q-34 -16 -63 -16q-14 0 -48 11q-10 3 -15 12q-4 52 -4 110q0 125 19 283q8 70 35 271q22 23 59 23q12 0 36 -3zM692 667q7 -432 -57 -588q-18 -43 -60 -74q-45 -33 -90 -33q-108 0 -208 163q-20 33 -29 66q11 12 33 26q30 19 47 19q6 0 10 -2
q25 -37 62 -74q48 -49 77 -49q47 0 58 103q3 26 3 137q0 60 -9 300q-1 19 46 34q37 12 62 12q54 0 55 -40z" />
    <glyph glyph-name="ij" unicode="&#x133;" horiz-adv-x="804" 
d="M198 616q-20 -112 -39 -305q-21 -220 -36 -305q-38 -32 -104 -28q-8 6 -18 32q0 342 42 667l50 10q36 7 59 7q54 0 54 -40q0 -16 -8 -38zM727 539q4 -34 4 -78q0 -123 -23 -236.5t-59 -169.5q-53 -83 -147 -80q-138 4 -244 160q7 32 37 56t63 26q15 -19 44 -58
q38 -49 77 -51q27 -2 49 35q18 29 24 62q20 107 20 206q0 138 -38 252q0 35 75 35q22 0 53 -6q42 -7 45 -19q7 -26 20 -134z" />
    <glyph glyph-name="Jcircumflex" unicode="&#x134;" horiz-adv-x="520" 
d="M442 667q7 -432 -57 -588q-18 -43 -60 -74q-45 -33 -90 -33q-108 0 -208 163q-20 33 -29 66q11 12 33 26q30 19 47 19q6 0 10 -2q25 -37 62 -74q48 -49 77 -49q47 0 58 103q3 26 3 137q0 60 -9 300q-1 19 46 34q37 12 62 12q54 0 55 -40zM460 831q0 -7 -11 -19t-15 -10
q-12 6 -34 28q-24 24 -35 31q-29 -25 -77 -59q-4 -2 -15 10t-11 19q0 1 47 61q28 37 49 48q3 1 6 0q14 -7 56 -53q40 -44 40 -56z" />
    <glyph glyph-name="jcircumflex" unicode="&#x135;" 
d="M442 667q7 -432 -57 -588q-18 -43 -60 -74q-45 -33 -90 -33q-108 0 -208 163q-20 33 -29 66q11 12 33 26q30 19 47 19q6 0 10 -2q25 -37 62 -74q48 -49 77 -49q47 0 58 103q3 26 3 137q0 60 -9 300q-1 19 46 34q37 12 62 12q54 0 55 -40zM499 815q0 -8 -16 -21t-22 -11
q-17 7 -50 33q-34 28 -50 35q-43 -26 -114 -63q-5 -1 -21.5 12.5t-16.5 21.5q0 1 69 66q43 41 74 53q3 0 8 -1q21 -8 81 -61q58 -51 58 -64z" />
    <glyph glyph-name="Kcommaaccent" unicode="&#x136;" 
d="M155 -111q50 -15 80 -8q33 11 36 32q-2 13 -27 23q-40 8 -56 14q-2 13 -2 24q4 12 11 31q22 -1 32 1q12 -2 19.5 -2.5t0.5 -22.5q1 -10 5 -13q11 -8 36.5 -16t33.5 -14q16 -10 19 -28q-6 -34 -55 -56q-42 -18 -97 -16q-25 2 -38 7q-9 21 2 44zM520 552q-85 -71 -259 -227
l114 -132q69 -79 102 -137q7 -22 -42 -46q-44 -22 -69 -21q-87 81 -205 241q-5 -50 -15 -149q-9 -81 -25 -102q-35 -4 -55 -4q-63 0 -68 31q9 262 14 341q12 183 38 333q42 8 77 8q55 0 57 -23q1 -10 1 -35q0 -8 -14 -203q80 72 115 100q77 62 144 98q6 1 12 1q21 0 50 -25
t29 -45q0 -3 -1 -4z" />
    <glyph glyph-name="kcommaaccent" unicode="&#x137;" 
d="M155 -111q50 -15 80 -8q33 11 36 32q-2 13 -27 23q-40 8 -56 14q-2 13 -2 24q4 12 11 31q22 -1 32 1q12 -2 19.5 -2.5t0.5 -22.5q1 -10 5 -13q11 -8 36.5 -16t33.5 -14q16 -10 19 -28q-6 -34 -55 -56q-42 -18 -97 -16q-25 2 -38 7q-9 21 2 44zM520 552q-85 -71 -259 -227
l114 -132q69 -79 102 -137q7 -22 -42 -46q-44 -22 -69 -21q-87 81 -205 241q-5 -50 -15 -149q-9 -81 -25 -102q-35 -4 -55 -4q-63 0 -68 31q9 262 14 341q12 183 38 333q42 8 77 8q55 0 57 -23q1 -10 1 -35q0 -8 -14 -203q80 72 115 100q77 62 144 98q6 1 12 1q21 0 50 -25
t29 -45q0 -3 -1 -4z" />
    <glyph glyph-name="kgreenlandic" unicode="&#x138;" horiz-adv-x="564" 
d="M520 552q-85 -71 -259 -227l114 -132q69 -79 102 -137q7 -22 -42 -46q-44 -22 -69 -21q-87 81 -205 241q-5 -50 -15 -149q-9 -81 -25 -102q-35 -4 -55 -4q-63 0 -68 31q9 262 14 341q12 183 38 333q42 8 77 8q55 0 57 -23q1 -10 1 -35q0 -8 -14 -203q80 72 115 100
q77 62 144 98q6 1 12 1q21 0 50 -25t29 -45q0 -3 -1 -4z" />
    <glyph glyph-name="Lacute" unicode="&#x139;" horiz-adv-x="408" 
d="M362 20q-68 -28 -164 -34q-43 -3 -169 -1q-12 0 -16 21q-13 75 -13 206q0 74 21 468q1 17 56 17q81 0 85 -26q1 -29 1 -63q0 -50 -3 -150t-3 -150q0 -100 9 -169h93q62 0 96 -5q2 -38 7 -114zM371 910q-45 -34 -233 -101q-7 -3 -29.5 13.5t-22.5 25.5q0 18 85 79
q96 69 114 69t52.5 -34.5t34.5 -48.5q0 -2 -1 -3z" />
    <glyph glyph-name="lacute" unicode="&#x13a;" horiz-adv-x="398" 
d="M341 141q10 -2 10 -34q0 -21 -5 -53q-7 -41 -17 -45q-104 -23 -230 -22q-32 0 -56 17q-28 20 -29 50q-14 307 -14 375q0 122 10 224q2 17 49 29q36 8 63 8q60 0 57 -27q-31 -256 -31 -392q0 -70 7 -122q46 -9 123 -9q29 0 63 1zM318 874q-45 -34 -233 -101
q-7 -3 -29.5 13.5t-22.5 25.5q0 18 85 79q96 69 114 69t52.5 -34.5t34.5 -48.5q0 -2 -1 -3z" />
    <glyph glyph-name="Lcommaaccent" unicode="&#x13b;" horiz-adv-x="443" 
d="M119 -13h-20q-32 0 -56 17q-28 20 -29 50q-14 307 -14 375q0 122 10 224q2 17 49 29q36 8 63 8q60 0 57 -27q-31 -256 -31 -392q0 -70 7 -122q46 -9 123 -9q29 0 63 1q10 -2 10 -34q0 -21 -5 -53q-7 -41 -17 -45q-69 -15 -149 -20v-1q1 -10 5 -13q11 -8 36.5 -16
t33.5 -14q16 -10 19 -28q-6 -34 -55 -56q-42 -18 -97 -16q-25 2 -38 7q-9 21 2 44q50 -15 80 -8q33 11 36 32q-2 13 -27 23q-40 8 -56 14q-2 13 -2 24z" />
    <glyph glyph-name="lcommaaccent" unicode="&#x13c;" horiz-adv-x="435" 
d="M119 -13h-20q-32 0 -56 17q-28 20 -29 50q-14 307 -14 375q0 122 10 224q2 17 49 29q36 8 63 8q60 0 57 -27q-31 -256 -31 -392q0 -70 7 -122q46 -9 123 -9q29 0 63 1q10 -2 10 -34q0 -21 -5 -53q-7 -41 -17 -45q-69 -15 -149 -20v-1q1 -10 5 -13q11 -8 36.5 -16
t33.5 -14q16 -10 19 -28q-6 -34 -55 -56q-42 -18 -97 -16q-25 2 -38 7q-9 21 2 44q50 -15 80 -8q33 11 36 32q-2 13 -27 23q-40 8 -56 14q-2 13 -2 24z" />
    <glyph glyph-name="Lcaron" unicode="&#x13d;" 
d="M341 178q10 -2 10 -34q0 -21 -5 -53q-7 -41 -17 -45q-104 -23 -230 -22q-32 0 -56 17q-28 20 -29 50q-14 307 -14 375q0 122 10 224q2 17 49 29q36 8 63 8q60 0 57 -27q-31 -256 -31 -392q0 -70 7 -122q46 -9 123 -9q29 0 63 1zM470 671q-20 -99 -70 -99q-2 0 -2 4
q0 6 5.5 23t5.5 25q0 13 -14 9q-30 0 -50.5 21.5t-20.5 51.5q0 29 18.5 49t47.5 20q26 0 51 -16q31 -20 31 -65q0 -13 -2 -23z" />
    <glyph glyph-name="lcaron" unicode="&#x13e;" 
d="M351 178q10 -2 10 -34q0 -21 -5 -53q-7 -41 -17 -45q-104 -23 -230 -22q-32 0 -56 17q-28 20 -29 50q-14 307 -14 375q0 122 10 224q2 17 49 29q36 8 63 8q60 0 57 -27q-31 -256 -31 -392q0 -70 7 -122q46 -9 123 -9q29 0 63 1zM480 671q-20 -99 -70 -99q-2 0 -2 4
q0 6 5.5 23t5.5 25q0 13 -14 9q-30 0 -50.5 21.5t-20.5 51.5q0 29 18.5 49t47.5 20q26 0 51 -16q31 -20 31 -65q0 -13 -2 -23z" />
    <glyph glyph-name="Ldot" unicode="&#x13f;" horiz-adv-x="408" 
d="M362 20q-68 -28 -164 -34q-43 -3 -169 -1q-12 0 -16 21q-13 75 -13 206q0 74 21 468q1 17 56 17q81 0 85 -26q1 -29 1 -63q0 -50 -3 -150t-3 -150q0 -100 9 -169h93q62 0 96 -5q2 -38 7 -114zM319 384q4 -18 4 -34q0 -88 -82 -79q-48 16 -48 61q0 30 23 54.5t52 24.5
q40 0 51 -27z" />
    <glyph glyph-name="ldot" unicode="&#x140;" horiz-adv-x="528" 
d="M341 141q10 -2 10 -34q0 -21 -5 -53q-7 -41 -17 -45q-104 -23 -230 -22q-32 0 -56 17q-28 20 -29 50q-14 307 -14 375q0 122 10 224q2 17 49 29q36 8 63 8q60 0 57 -27q-31 -256 -31 -392q0 -70 7 -122q46 -9 123 -9q29 0 63 1zM477 382q4 -18 4 -34q0 -88 -82 -79
q-48 16 -48 61q0 30 23 54.5t52 24.5q40 0 51 -27z" />
    <glyph glyph-name="Lslash" unicode="&#x141;" horiz-adv-x="408" 
d="M157 290q1 -88 9 -151h93q62 0 96 -5q2 -38 7 -114q-68 -28 -164 -34q-43 -3 -169 -1q-12 0 -16 21q-13 75 -13 206q0 24 2 81q-36 1 -78 3q-11 3 -29 17q0 20 4 25q13 11 25 21l81 7q6 117 16 314q1 17 56 17q81 0 85 -26q1 -29 1 -63q0 -50 -3 -150q-1 -44 -2 -78
q92 6 214 10q72 2 72 -27q0 -11 -9 -32q-11 -24 -13 -31q-155 -10 -260 -10h-5z" />
    <glyph glyph-name="lslash" unicode="&#x142;" horiz-adv-x="398" 
d="M148 288v-17q0 -70 7 -122q46 -9 123 -9q29 0 63 1q10 -2 10 -34q0 -21 -5 -53q-7 -41 -17 -45q-104 -23 -230 -22q-32 0 -56 17q-28 20 -29 50q-7 146 -10 237q-35 1 -74 3q-11 3 -29 17q0 20 4 25q13 11 25 21l71 6q-1 45 -1 66q0 122 10 224q2 17 49 29q36 8 63 8
q60 0 57 -27q-21 -169 -27 -286h2q95 7 224 11q72 2 72 -27q0 -11 -9 -32q-11 -24 -13 -31q-155 -10 -260 -10h-20z" />
    <glyph glyph-name="Nacute" unicode="&#x143;" horiz-adv-x="659" 
d="M574 341q-8 -49 -16.5 -151.5t-18.5 -154.5q-24 -24 -55 -27q-39 42 -333 335l-6 -168q-4 -96 -23 -163q-45 -21 -59 -21q-23 0 -59 27v421q-1 125 -5 206q22 41 79 45q123 -138 347 -357q6 47 9 152q3 98 7 156q3 17 44 33q31 11 58 11q9 0 17 -1q26 -53 26 -137
q0 -34 -6 -103t-6 -103zM482 910q-45 -34 -233 -101q-7 -3 -29.5 13.5t-22.5 25.5q0 18 85 79q96 69 114 69t52.5 -34.5t34.5 -48.5q0 -2 -1 -3z" />
    <glyph glyph-name="nacute" unicode="&#x144;" horiz-adv-x="681" 
d="M626 632l-59 -393q-39 -230 -59 -258q-9 -2 -37 -14q-22 -9 -38 -9q-9 0 -17 2q-59 56 -102 132q-26 48 -78 145q-32 59 -64 124l-35 -353q-23 -18 -49 -24q-20 -4 -52 -3q-36 1 -36 61q1 113 19 312q23 249 26 309q8 11 20 15l27 9q22 6 30 6q15 0 34 -15
q110 -177 240 -430h11q10 80 71 432q18 2 61 17q40 14 58 14q32 0 32 -46q0 -12 -3 -33zM504 878q-45 -34 -233 -101q-7 -3 -29.5 13.5t-22.5 25.5q0 18 85 79q96 69 114 69t52.5 -34.5t34.5 -48.5q0 -2 -1 -3z" />
    <glyph glyph-name="Ncommaaccent" unicode="&#x145;" horiz-adv-x="696" 
d="M623 635l-59 -393q-39 -230 -59 -258q-9 -2 -37 -14q-22 -9 -38 -9q-9 0 -17 2q-59 56 -102 132q-26 48 -78 145q-32 59 -64 124l-35 -353q-23 -18 -49 -24q-20 -4 -52 -3q-36 1 -36 61q1 113 19 312q23 249 26 309q8 11 20 15l27 9q22 6 30 6q15 0 34 -15
q110 -177 240 -430h11q10 80 71 432q18 2 61 17q40 14 58 14q32 0 32 -46q0 -12 -3 -33zM192 -102q50 -15 80 -8q33 11 36 32q-2 13 -27 23q-40 8 -56 14q-2 13 -2 24q4 12 11 31q22 -1 32 1q12 -2 19.5 -2.5t0.5 -22.5q1 -10 5 -13q11 -8 36.5 -16t33.5 -14q16 -10 19 -28
q-6 -34 -55 -56q-42 -18 -97 -16q-25 2 -38 7q-9 21 2 44z" />
    <glyph glyph-name="ncommaaccent" unicode="&#x146;" horiz-adv-x="697" 
d="M623 635l-59 -393q-39 -230 -59 -258q-9 -2 -37 -14q-22 -9 -38 -9q-9 0 -17 2q-59 56 -102 132q-26 48 -78 145q-32 59 -64 124l-35 -353q-23 -18 -49 -24q-20 -4 -52 -3q-36 1 -36 61q1 113 19 312q23 249 26 309q8 11 20 15l27 9q22 6 30 6q15 0 34 -15
q110 -177 240 -430h11q10 80 71 432q18 2 61 17q40 14 58 14q32 0 32 -46q0 -12 -3 -33zM192 -102q50 -15 80 -8q33 11 36 32q-2 13 -27 23q-40 8 -56 14q-2 13 -2 24q4 12 11 31q22 -1 32 1q12 -2 19.5 -2.5t0.5 -22.5q1 -10 5 -13q11 -8 36.5 -16t33.5 -14q16 -10 19 -28
q-6 -34 -55 -56q-42 -18 -97 -16q-25 2 -38 7q-9 21 2 44z" />
    <glyph glyph-name="Ncaron" unicode="&#x147;" horiz-adv-x="659" 
d="M574 341q-8 -49 -16.5 -151.5t-18.5 -154.5q-24 -24 -55 -27q-39 42 -333 335l-6 -168q-4 -96 -23 -163q-45 -21 -59 -21q-23 0 -59 27v421q-1 125 -5 206q22 41 79 45q123 -138 347 -357q6 47 9 152q3 98 7 156q3 17 44 33q31 11 58 11q9 0 17 -1q26 -53 26 -137
q0 -34 -6 -103t-6 -103zM331 751q-71 -48 -94 -57q-9 -7 -17 -3q-28 18 -72 54q-99 78 -98 89l37 37t38 35q55 -69 111 -127q33 38 59 69q33 39 57 57q24 -28 35 -44t21 -35q-10 -17 -77 -75z" />
    <glyph glyph-name="ncaron" unicode="&#x148;" horiz-adv-x="681" 
d="M626 632l-59 -393q-39 -230 -59 -258q-9 -2 -37 -14q-22 -9 -38 -9q-9 0 -17 2q-59 56 -102 132q-26 48 -78 145q-32 59 -64 124l-35 -353q-23 -18 -49 -24q-20 -4 -52 -3q-36 1 -36 61q1 113 19 312q23 249 26 309q8 11 20 15l27 9q22 6 30 6q15 0 34 -15
q110 -177 240 -430h11q10 80 71 432q18 2 61 17q40 14 58 14q32 0 32 -46q0 -12 -3 -33zM353 719q-71 -48 -94 -57q-9 -7 -17 -3q-28 18 -72 54q-99 78 -98 89l37 37t38 35q55 -69 111 -127q33 38 59 69q33 39 57 57q24 -28 35 -44t21 -35q-10 -17 -77 -75z" />
    <glyph glyph-name="napostrophe" unicode="&#x149;" horiz-adv-x="883" 
d="M794 724q-20 -99 -70 -99q-2 0 -2 4q0 6 5.5 23t5.5 25q0 13 -14 9q-30 0 -50.5 21.5t-20.5 51.5q0 29 18.5 49t47.5 20q26 0 51 -16q31 -20 31 -65q0 -13 -2 -23zM623 635l-59 -393q-39 -230 -59 -258q-9 -2 -37 -14q-22 -9 -38 -9q-9 0 -17 2q-59 56 -102 132
q-26 48 -78 145q-32 59 -64 124l-35 -353q-23 -18 -49 -24q-20 -4 -52 -3q-36 1 -36 61q1 113 19 312q23 249 26 309q8 11 20 15l27 9q22 6 30 6q15 0 34 -15q110 -177 240 -430h11q10 80 71 432q18 2 61 17q40 14 58 14q32 0 32 -46q0 -12 -3 -33z" />
    <glyph glyph-name="Omacron" unicode="&#x14c;" horiz-adv-x="673" 
d="M604 368q0 -138 -73 -255q-87 -139 -243 -139q-85 0 -151 41q-137 85 -137 280q0 87 32 166q32 84 93 141q108 102 203 102q64 0 127 -46q149 -108 149 -290zM422 510q-16 39 -36 49q-14 7 -52 7q-74 0 -117 -62q-72 -103 -72 -206q0 -43 13 -83q18 -54 93 -88
q18 -8 39 -8q40 0 75 32q31 28 47 69q33 84 33 166q0 68 -23 124zM482 792q-100 -10 -149 -10q-22 0 -66.5 0.5t-67.5 0.5q-8 2 -22 10q-1 13 3 17l17 13l122 15q33 4 122 10h15q39 0 39 -17q0 -8 -6 -20q-6 -13 -7 -19z" />
    <glyph glyph-name="omacron" unicode="&#x14d;" horiz-adv-x="730" 
d="M475 52q-116 -91 -224 -90q-123 1 -175 49q-77 70 -77 205q0 61 17 127q31 121 143 222q108 97 233 126q26 6 52 6q62 0 112 -30t75 -85q34 -74 34 -161q0 -220 -190 -369zM527 461q0 21 -9 42q-19 48 -78 48q-77 0 -163.5 -68t-112.5 -143q-16 -47 -14 -99
q3 -70 50 -107q26 -20 61 -20q13 0 77 15q55 13 118 109q73 111 71 223zM531 768q-100 -10 -149 -10q-22 0 -66.5 0.5t-67.5 0.5q-8 2 -22 10q-1 13 3 17l17 13l122 15q33 4 122 10h15q39 0 39 -17q0 -8 -6 -20q-6 -13 -7 -19z" />
    <glyph glyph-name="Obreve" unicode="&#x14e;" horiz-adv-x="673" 
d="M604 368q0 -138 -73 -255q-87 -139 -243 -139q-85 0 -151 41q-137 85 -137 280q0 87 32 166q32 84 93 141q108 102 203 102q64 0 127 -46q149 -108 149 -290zM422 510q-16 39 -36 49q-14 7 -52 7q-74 0 -117 -62q-72 -103 -72 -206q0 -43 13 -83q18 -54 93 -88
q18 -8 39 -8q40 0 75 32q31 28 47 69q33 84 33 166q0 68 -23 124zM393 896q-2 -12 -8 -23q-16 -35 -44 -37q-40 -2 -53 30q-7 8 -24 44q-5 10 -29 9q-16 0 -50 -25q-6 -1 -8 -20q5 -20 22 -44q22 -29 48 -45q41 -26 82 -26q77 3 130 56q28 35 33 53q8 19 7 28q-8 18 -48 25
q-13 0 -36 1q-18 -10 -20 -14q0 1 -2 -12z" />
    <glyph glyph-name="obreve" unicode="&#x14f;" horiz-adv-x="730" 
d="M475 52q-116 -91 -224 -90q-123 1 -175 49q-77 70 -77 205q0 61 17 127q31 121 143 222q108 97 233 126q26 6 52 6q62 0 112 -30t75 -85q34 -74 34 -161q0 -220 -190 -369zM527 461q0 21 -9 42q-19 48 -78 48q-77 0 -163.5 -68t-112.5 -143q-16 -47 -14 -99
q3 -70 50 -107q26 -20 61 -20q13 0 77 15q55 13 118 109q73 111 71 223zM455 869q-2 -12 -8 -23q-16 -35 -44 -37q-40 -2 -53 30q-7 8 -24 44q-5 10 -29 9q-16 0 -50 -25q-6 -1 -8 -20q5 -20 22 -44q22 -29 48 -45q41 -26 82 -26q77 3 130 56q28 35 33 53q8 19 7 28
q-8 18 -48 25q-13 0 -36 1q-18 -10 -20 -14q0 1 -2 -12z" />
    <glyph glyph-name="Ohungarumlaut" unicode="&#x150;" horiz-adv-x="673" 
d="M604 368q0 -138 -73 -255q-87 -139 -243 -139q-85 0 -151 41q-137 85 -137 280q0 87 32 166q32 84 93 141q108 102 203 102q64 0 127 -46q149 -108 149 -290zM422 510q-16 39 -36 49q-14 7 -52 7q-74 0 -117 -62q-72 -103 -72 -206q0 -43 13 -83q18 -54 93 -88
q18 -8 39 -8q40 0 75 32q31 28 47 69q33 84 33 166q0 68 -23 124zM358 873q-65 -91 -80 -102q-4 -2 -13 -2q-39 0 -42 6q6 20 22 55q11 24 19 36q3 8 13 17q8 9 24 16q23 7 38 4q18 0 23.5 -5.5t-4.5 -24.5zM526 872q-65 -90 -80 -101q-4 -2 -13 -2q-39 0 -43 7q7 21 25 54
q9 23 17 36q3 8 13 17q8 9 24 16q23 6 38 4q18 0 23.5 -6t-4.5 -25z" />
    <glyph glyph-name="ohungarumlaut" unicode="&#x151;" horiz-adv-x="730" 
d="M475 52q-116 -91 -224 -90q-123 1 -175 49q-77 70 -77 205q0 61 17 127q31 121 143 222q108 97 233 126q26 6 52 6q62 0 112 -30t75 -85q34 -74 34 -161q0 -220 -190 -369zM527 461q0 21 -9 42q-19 48 -78 48q-77 0 -163.5 -68t-112.5 -143q-16 -47 -14 -99
q3 -70 50 -107q26 -20 61 -20q13 0 77 15q55 13 118 109q73 111 71 223zM451 874q-65 -91 -80 -102q-4 -2 -13 -2q-39 0 -42 6q6 20 22 55q11 24 19 36q3 8 13 17q8 9 24 16q23 7 38 4q18 0 23.5 -5.5t-4.5 -24.5zM619 873q-65 -90 -80 -101q-4 -2 -13 -2q-39 0 -43 7
q7 21 25 54q9 23 17 36q3 8 13 17q8 9 24 16q23 6 38 4q18 0 23.5 -6t-4.5 -25z" />
    <glyph glyph-name="OE" unicode="&#x152;" horiz-adv-x="1001" 
d="M422 510q-16 39 -36 49q-14 7 -52 7q-74 0 -117 -62q-72 -103 -72 -206q0 -43 13 -83q18 -54 93 -88q18 -8 39 -8q40 0 75 32q31 28 47 69q33 84 33 166q0 68 -23 124zM457 29q-71 -55 -169 -55q-85 0 -151 41q-137 85 -137 280q0 87 32 166q32 84 93 141
q108 102 203 102q64 0 127 -46q47 -34 79 -75q11 35 24 68q142 31 354 36q5 -28 -8 -68t-33 -62q-118 -7 -211 -17l-9 -1l-1 -9q0 -5 -14 -60q-10 -40 -3 -57l3 -7h7q13 0 47 2q45 3 68 4q61 3 98 -6q3 -15 3 -32q0 -29 -8 -65q-41 -9 -116 -17q-56 -6 -112 -14l-7 -1l-2 -7
q-12 -44 -4 -120l1 -9l10 -1q19 -2 131 12q32 4 60 4q33 0 59 -6q-1 -19 -6 -69q-6 -44 -33 -49q-73 -14 -170 -22l-168 -15q-16 3 -27 17q-7 8 -10 17z" />
    <glyph glyph-name="oe" unicode="&#x153;" horiz-adv-x="1054" 
d="M527 461q0 21 -9 42q-19 48 -78 48q-77 0 -163.5 -68t-112.5 -143q-16 -47 -14 -99q3 -70 50 -107q26 -20 61 -20q13 0 77 15q55 13 118 109q73 111 71 223zM576 154q-41 -55 -101 -102q-116 -91 -224 -90q-123 1 -175 49q-77 70 -77 205q0 61 17 127q31 121 143 222
q108 97 233 126q26 6 52 6q62 0 112 -30q23 -14 41 -33l2 18q4 28 31 29q187 8 349 -9q15 -37 15 -56q0 -6 -5 -50q-54 -16 -139 -17q-97 -2 -134 -8q-5 -73 -5 -82q0 -41 10 -54q36 -1 116 1q77 2 112 -6q7 -28 7 -58t-7 -55q-95 -6 -241 -16q0 12 -2 -69q-1 -53 4 -64
q50 0 146 7l148 11q25 -48 24 -115q-109 -33 -209 -45q-35 -3 -141 -16q-24 -3 -55 9q-36 14 -38 36q-6 62 -9 129z" />
    <glyph glyph-name="Racute" unicode="&#x154;" horiz-adv-x="557" 
d="M494 158q-15 -39 -45 -115q-4 -3 -37 7q-102 31 -256 108q-17 -92 -15 -216q-9 -1 -123 -3q-17 85 -19 208q-3 281 56 466q154 86 263 86q65 0 110 -32q51 -36 54 -98q5 -91 -64 -187q-25 -35 -140 -157q106 -42 216 -67zM334 546q-5 42 -46 42q-31 0 -95 -31
q-3 -23 -17 -123q-11 -76 -9 -119q158 118 167 231zM436 910q-45 -34 -233 -101q-7 -3 -29.5 13.5t-22.5 25.5q0 18 85 79q96 69 114 69t52.5 -34.5t34.5 -48.5q0 -2 -1 -3z" />
    <glyph glyph-name="racute" unicode="&#x155;" horiz-adv-x="700" 
d="M648 161q3 -31 -40 -91q-39 -55 -56 -63q-189 42 -403 183q-11 -40 -10 -105q1 -97 0 -107q-55 -15 -85 -15q-29 0 -49 11q-4 57 -4 116q0 230 71 527q55 44 141 69q81 24 157 24q183 0 183 -141q0 -36 -10 -63q-56 -153 -221 -254q35 -26 164 -59q117 -30 162 -32z
M394 530q0 24 -33 37q-26 10 -54 10q-16 0 -28 -3q-55 -13 -74 -32q-9 -9 -21 -63q-14 -65 -17 -145q80 21 147 71q80 60 80 125zM514 878q-45 -34 -233 -101q-7 -3 -29.5 13.5t-22.5 25.5q0 18 85 79q96 69 114 69t52.5 -34.5t34.5 -48.5q0 -2 -1 -3z" />
    <glyph glyph-name="Rcommaaccent" unicode="&#x156;" horiz-adv-x="542" 
d="M192 -102q50 -15 80 -8q33 11 36 32q-2 13 -27 23q-40 8 -56 14q-2 13 -2 24q4 12 11 31q22 -1 32 1q12 -2 19.5 -2.5t0.5 -22.5q1 -10 5 -13q11 -8 36.5 -16t33.5 -14q16 -10 19 -28q-6 -34 -55 -56q-42 -18 -97 -16q-25 2 -38 7q-9 21 2 44zM494 158q-15 -39 -45 -115
q-4 -3 -37 7q-102 31 -256 108q-17 -92 -15 -216q-9 -1 -123 -3q-17 85 -19 208q-3 281 56 466q154 86 263 86q65 0 110 -32q51 -36 54 -98q5 -91 -64 -187q-25 -35 -140 -157q106 -42 216 -67zM334 546q-5 42 -46 42q-31 0 -95 -31q-3 -23 -17 -123q-11 -76 -9 -119
q158 118 167 231z" />
    <glyph glyph-name="rcommaaccent" unicode="&#x157;" horiz-adv-x="699" 
d="M192 -102q50 -15 80 -8q33 11 36 32q-2 13 -27 23q-40 8 -56 14q-2 13 -2 24q4 12 11 31q22 -1 32 1q12 -2 19.5 -2.5t0.5 -22.5q1 -10 5 -13q11 -8 36.5 -16t33.5 -14q16 -10 19 -28q-6 -34 -55 -56q-42 -18 -97 -16q-25 2 -38 7q-9 21 2 44zM648 161q3 -31 -40 -91
q-39 -55 -56 -63q-189 42 -403 183q-11 -40 -10 -105q1 -97 0 -107q-55 -15 -85 -15q-29 0 -49 11q-4 57 -4 116q0 230 71 527q55 44 141 69q81 24 157 24q183 0 183 -141q0 -36 -10 -63q-56 -153 -221 -254q35 -26 164 -59q117 -30 162 -32zM394 530q0 24 -33 37
q-26 10 -54 10q-16 0 -28 -3q-55 -13 -74 -32q-9 -9 -21 -63q-14 -65 -17 -145q80 21 147 71q80 60 80 125z" />
    <glyph glyph-name="Rcaron" unicode="&#x158;" horiz-adv-x="557" 
d="M494 158q-15 -39 -45 -115q-4 -3 -37 7q-102 31 -256 108q-17 -92 -15 -216q-9 -1 -123 -3q-17 85 -19 208q-3 281 56 466q154 86 263 86q65 0 110 -32q51 -36 54 -98q5 -91 -64 -187q-25 -35 -140 -157q106 -42 216 -67zM334 546q-5 42 -46 42q-31 0 -95 -31
q-3 -23 -17 -123q-11 -76 -9 -119q158 118 167 231zM296 847q-71 -48 -94 -57q-9 -7 -17 -3q-28 18 -72 54q-99 78 -98 89l37 37t38 35q55 -69 111 -127q33 38 59 69q33 39 57 57q24 -28 35 -44t21 -35q-10 -17 -77 -75z" />
    <glyph glyph-name="rcaron" unicode="&#x159;" horiz-adv-x="700" 
d="M648 161q3 -31 -40 -91q-39 -55 -56 -63q-189 42 -403 183q-11 -40 -10 -105q1 -97 0 -107q-55 -15 -85 -15q-29 0 -49 11q-4 57 -4 116q0 230 71 527q55 44 141 69q81 24 157 24q183 0 183 -141q0 -36 -10 -63q-56 -153 -221 -254q35 -26 164 -59q117 -30 162 -32z
M394 530q0 24 -33 37q-26 10 -54 10q-16 0 -28 -3q-55 -13 -74 -32q-9 -9 -21 -63q-14 -65 -17 -145q80 21 147 71q80 60 80 125zM365 850q-71 -48 -94 -57q-9 -7 -17 -3q-28 18 -72 54q-99 78 -98 89l37 37t38 35q55 -69 111 -127q33 38 59 69q33 39 57 57q24 -28 35 -44
t21 -35q-10 -17 -77 -75z" />
    <glyph glyph-name="Sacute" unicode="&#x15a;" horiz-adv-x="493" 
d="M424 149q-54 -171 -292 -219l-5 -1l-2 4q-2 4 -29 37q-18 22 -18 34q0 16 28 36t86 62q53 40 65 78q10 31 0 49q-13 25 -61 47q-8 5 -77 30q-120 44 -120 119q0 32 19 75q49 111 153 183q37 25 227 107l7 3l2 -8q3 -39 11 -129l1 -5l-5 -2q-81 -32 -164 -93
q-16 -11 -68 -65q-22 -27 -22 -53q0 -13 6 -27q24 -22 86 -47q82 -33 94 -39q87 -44 87 -119q0 -28 -9 -57zM406 910q-45 -34 -233 -101q-7 -3 -29.5 13.5t-22.5 25.5q0 18 85 79q96 69 114 69t52.5 -34.5t34.5 -48.5q0 -2 -1 -3z" />
    <glyph glyph-name="sacute" unicode="&#x15b;" horiz-adv-x="425" 
d="M376 646l-3 -5q-185 -79 -200 -191q-1 -10 -1 -23q0 -49 44 -93q28 -23 84 -70q69 -60 61 -140q-10 -103 -86 -142q-59 -30 -128 -30q-53 0 -98 19l-3 4q-4 11 -10 35q-3 24 12 39l5 1q23 -9 50 -9q46 0 87 23q24 20 24 59q0 16 -4 32q-20 33 -61 73l-70 66
q-85 84 -80 171q6 103 124 192q94 70 221 107q6 2 14.5 -1t11.5 -3l5 1l1 -5q9 -46 0 -110zM379 878q-45 -34 -233 -101q-7 -3 -29.5 13.5t-22.5 25.5q0 18 85 79q96 69 114 69t52.5 -34.5t34.5 -48.5q0 -2 -1 -3z" />
    <glyph glyph-name="Scircumflex" unicode="&#x15c;" horiz-adv-x="493" 
d="M424 149q-54 -171 -292 -219l-5 -1l-2 4q-2 4 -29 37q-18 22 -18 34q0 16 28 36t86 62q53 40 65 78q10 31 0 49q-13 25 -61 47q-8 5 -77 30q-120 44 -120 119q0 32 19 75q49 111 153 183q37 25 227 107l7 3l2 -8q3 -39 11 -129l1 -5l-5 -2q-81 -32 -164 -93
q-16 -11 -68 -65q-22 -27 -22 -53q0 -13 6 -27q24 -22 86 -47q82 -33 94 -39q87 -44 87 -119q0 -28 -9 -57zM392 850q0 -7 -11 -19t-15 -10q-12 6 -34 28q-24 24 -35 31q-29 -25 -77 -59q-4 -2 -15 10t-11 19q0 1 47 61q28 37 49 48q3 1 6 0q14 -7 56 -53q40 -44 40 -56z
" />
    <glyph glyph-name="scircumflex" unicode="&#x15d;" horiz-adv-x="425" 
d="M376 646l-3 -5q-185 -79 -200 -191q-1 -10 -1 -23q0 -49 44 -93q28 -23 84 -70q69 -60 61 -140q-10 -103 -86 -142q-59 -30 -128 -30q-53 0 -98 19l-3 4q-4 11 -10 35q-3 24 12 39l5 1q23 -9 50 -9q46 0 87 23q24 20 24 59q0 16 -4 32q-20 33 -61 73l-70 66
q-85 84 -80 171q6 103 124 192q94 70 221 107q6 2 14.5 -1t11.5 -3l5 1l1 -5q9 -46 0 -110zM350 825q0 -7 -11 -19t-15 -10q-12 6 -34 28q-24 24 -35 31q-29 -25 -77 -59q-4 -2 -15 10t-11 19q0 1 47 61q28 37 49 48q3 1 6 0q14 -7 56 -53q40 -44 40 -56z" />
    <glyph glyph-name="Scedilla" unicode="&#x15e;" horiz-adv-x="493" 
d="M424 149q-54 -171 -292 -219l-5 -1l-2 4q-2 4 -29 37q-18 22 -18 34q0 16 28 36t86 62q53 40 65 78q10 31 0 49q-13 25 -61 47q-8 5 -77 30q-120 44 -120 119q0 32 19 75q49 111 153 183q37 25 227 107l7 3l2 -8q3 -39 11 -129l1 -5l-5 -2q-81 -32 -164 -93
q-16 -11 -68 -65q-22 -27 -22 -53q0 -13 6 -27q24 -22 86 -47q82 -33 94 -39q87 -44 87 -119q0 -28 -9 -57zM130 -152q50 -15 80 -8q33 11 36 32q-2 13 -27 23q-40 8 -56 14q-2 13 -2 24q4 12 11 31q22 -1 32 1q12 -2 19.5 -2.5t0.5 -22.5q1 -10 5 -13q11 -8 36.5 -16
t33.5 -14q16 -10 19 -28q-6 -34 -55 -56q-42 -18 -97 -16q-25 2 -38 7q-9 21 2 44z" />
    <glyph glyph-name="scedilla" unicode="&#x15f;" horiz-adv-x="425" 
d="M376 646l-3 -5q-185 -79 -200 -191q-1 -10 -1 -23q0 -49 44 -93q28 -23 84 -70q69 -60 61 -140q-10 -103 -86 -142q-59 -30 -128 -30q-53 0 -98 19l-3 4q-4 11 -10 35q-3 24 12 39l5 1q23 -9 50 -9q46 0 87 23q24 20 24 59q0 16 -4 32q-20 33 -61 73l-70 66
q-85 84 -80 171q6 103 124 192q94 70 221 107q6 2 14.5 -1t11.5 -3l5 1l1 -5q9 -46 0 -110zM107 -150q50 -15 80 -8q33 11 36 32q-2 13 -27 23q-40 8 -56 14q-2 13 -2 24q4 12 11 31q22 -1 32 1q12 -2 19.5 -2.5t0.5 -22.5q1 -10 5 -13q11 -8 36.5 -16t33.5 -14
q16 -10 19 -28q-6 -34 -55 -56q-42 -18 -97 -16q-25 2 -38 7q-9 21 2 44z" />
    <glyph glyph-name="Scaron" unicode="&#x160;" horiz-adv-x="493" 
d="M424 149q-54 -171 -292 -219l-5 -1l-2 4q-2 4 -29 37q-18 22 -18 34q0 16 28 36t86 62q53 40 65 78q10 31 0 49q-13 25 -61 47q-8 5 -77 30q-120 44 -120 119q0 32 19 75q49 111 153 183q37 25 227 107l7 3l2 -8q3 -39 11 -129l1 -5l-5 -2q-81 -32 -164 -93
q-16 -11 -68 -65q-22 -27 -22 -53q0 -13 6 -27q24 -22 86 -47q82 -33 94 -39q87 -44 87 -119q0 -28 -9 -57zM297 859q-71 -48 -94 -57q-9 -7 -17 -3q-28 18 -72 54q-99 78 -98 89l37 37t38 35q55 -69 111 -127q33 38 59 69q33 39 57 57q24 -28 35 -44t21 -35
q-10 -17 -77 -75z" />
    <glyph glyph-name="scaron" unicode="&#x161;" horiz-adv-x="425" 
d="M376 646l-3 -5q-185 -79 -200 -191q-1 -10 -1 -23q0 -49 44 -93q28 -23 84 -70q69 -60 61 -140q-10 -103 -86 -142q-59 -30 -128 -30q-53 0 -98 19l-3 4q-4 11 -10 35q-3 24 12 39l5 1q23 -9 50 -9q46 0 87 23q24 20 24 59q0 16 -4 32q-20 33 -61 73l-70 66
q-85 84 -80 171q6 103 124 192q94 70 221 107q6 2 14.5 -1t11.5 -3l5 1l1 -5q9 -46 0 -110zM291 867q-71 -48 -94 -57q-9 -7 -17 -3q-28 18 -72 54q-99 78 -98 89l37 37t38 35q55 -69 111 -127q33 38 59 69q33 39 57 57q24 -28 35 -44t21 -35q-10 -17 -77 -75z" />
    <glyph glyph-name="Tcommaaccent" unicode="&#x162;" 
d="M225 -24q2 -6 -3 -20q1 -10 5 -13q11 -8 36.5 -16t33.5 -14q16 -10 19 -28q-6 -34 -55 -56q-42 -18 -97 -16q-25 2 -38 7q-9 21 2 44q50 -15 80 -8q33 11 36 32q-2 13 -27 23q-40 8 -56 14q-2 13 -2 24l10 30q-6 3 -11 7q-6 53 -6 112q0 64 10 190.5t10 190.5q0 26 -1 51
q-23 2 -64 -5q-45 -7 -63 -7q-19 0 -32 5q-9 67 -9 111q0 17 1 30q22 2 198 31q121 20 202 20q25 0 49 -2q9 -10 9 -12q1 -49 -4 -137q-74 -3 -154 -25q-15 -107 -22 -275l-12 -278q-28 -7 -45 -10z" />
    <glyph glyph-name="tcommaaccent" unicode="&#x163;" 
d="M169 -21h-4q-3 3 -6 4q-6 75 -6 187q0 208 10 358l2 30l-68 2q-16 0 -55 1q-43 2 -40 29l13 106q118 6 248 6q104 0 216 -4q2 -31 2 -64q0 -32 -2 -64q-40 -1 -118 -5q-13 -1 -38 -4q-5 -4 -9 -50q-17 -174 -58 -530q-9 -8 -31 -8q1 -5 -3 -17q1 -10 5 -13
q11 -8 36.5 -16t33.5 -14q16 -10 19 -28q-6 -34 -55 -56q-42 -18 -97 -16q-25 2 -38 7q-9 21 2 44q50 -15 80 -8q33 11 36 32q-2 13 -27 23q-40 8 -56 14q-2 13 -2 24z" />
    <glyph glyph-name="Tcaron" unicode="&#x164;" 
d="M479 698q2 -31 2 -64q0 -32 -2 -64q-40 -1 -118 -5q-13 -1 -38 -4q-5 -4 -9 -50q-17 -174 -58 -530q-11 -10 -41 -7l-50 5q-3 3 -6 4q-6 75 -6 187q0 208 10 358l2 30l-68 2q-16 0 -55 1q-43 2 -40 29l13 106q118 6 248 6q104 0 216 -4zM342 828q-62 -52 -82 -60
q-5 -1 -9 0q-31 13 -73 55q-69 67 -69 68q0 8 13 26.5t50 13.5q37 -53 84 -100q36 26 61 68q15 35 46 25q6 3 22 -11t16 -22q0 -13 -59 -63z" />
    <glyph glyph-name="tcaron" unicode="&#x165;" horiz-adv-x="700" 
d="M479 698q2 -31 2 -64q0 -32 -2 -64q-40 -1 -118 -5q-13 -1 -38 -4q-5 -4 -9 -50q-17 -174 -58 -530q-11 -10 -41 -7l-50 5q-3 3 -6 4q-6 75 -6 187q0 208 10 358l2 30l-68 2q-16 0 -55 1q-43 2 -40 29l13 106q118 6 248 6q104 0 216 -4zM649 701q-20 -99 -70 -99
q-2 0 -2 4q0 6 5.5 23t5.5 25q0 13 -14 9q-30 0 -50.5 21.5t-20.5 51.5q0 29 18.5 49t47.5 20q26 0 51 -16q31 -20 31 -65q0 -13 -2 -23z" />
    <glyph glyph-name="Tbar" unicode="&#x166;" 
d="M165 334q7 93 7 145q0 26 -1 51q-23 2 -64 -5q-45 -7 -63 -7q-19 0 -32 5q-9 67 -9 111q0 17 1 30q22 2 198 31q121 20 202 20q25 0 49 -2q9 -10 9 -12q1 -49 -4 -137q-74 -3 -154 -25q-11 -80 -18 -194q57 3 127 6q59 2 59 -26q0 -10 -7 -29q-10 -23 -11 -29
q-98 -8 -172 -9l-12 -272q-57 -14 -69 -14q-26 0 -43 14q-6 53 -6 112q0 56 8 160q-51 2 -117 5q-9 3 -24 15q0 20 3 24q11 10 21 20z" />
    <glyph glyph-name="tbar" unicode="&#x167;" 
d="M155 333q2 107 8 195l2 30l-68 2q-16 0 -55 1q-43 2 -40 29l13 106q118 6 248 6q104 0 216 -4q2 -31 2 -64q0 -32 -2 -64q-40 -1 -118 -5q-13 -1 -38 -4q-5 -4 -9 -50q-7 -69 -17 -166q53 4 116 6q59 2 59 -26q0 -10 -7 -29q-10 -23 -11 -29q-95 -7 -167 -9
q-13 -121 -31 -277q-11 -10 -41 -7l-50 5q-3 3 -6 4q-6 75 -6 187v89q-48 1 -110 4q-9 3 -24 15q0 20 3 24q11 10 21 20z" />
    <glyph glyph-name="Utilde" unicode="&#x168;" horiz-adv-x="561" 
d="M488 677q0 -241 -17 -347q-31 -193 -135 -305q-44 -47 -107 -50q-82 -3 -131 54q-98 114 -98 320q0 80 36 342q13 21 83 21q57 0 63 -16l-22 -178q-12 -104 -12 -181q0 -109 27 -169q14 -32 56 -32q11 0 18 4q71 53 93 318q4 52 10 210q9 21 77 21q50 0 59 -12zM431 802
q-30 -51 -87 -50q-28 0 -65.5 26t-65.5 27q-57 0 -100 -44q-9 12 -7 44q29 80 105 89q29 3 66 -32q39 -38 64 -38q50 -2 89 30q5 0 5 -17q0 -12 -4 -35z" />
    <glyph glyph-name="utilde" unicode="&#x169;" horiz-adv-x="635" 
d="M571 676q5 -148 -24 -307q-38 -206 -120 -324q-57 -82 -172 -82q-62 0 -110 26q-146 80 -146 298q0 75 18 186l28 172q71 36 129 43q22 3 24 1q6 -3 3 -20q-10 -61 -30 -182q-16 -102 -16 -182q0 -69 13 -137q4 -20 21 -36t37 -19q57 -8 87 61q43 97 67 239q3 16 40 249
q51 21 102 21q28 0 49 -7zM479 776q-30 -51 -87 -50q-28 0 -65.5 26t-65.5 27q-57 0 -100 -44q-9 12 -7 44q29 80 105 89q29 3 66 -32q39 -38 64 -38q50 -2 89 30q5 0 5 -17q0 -12 -4 -35z" />
    <glyph glyph-name="Umacron" unicode="&#x16a;" horiz-adv-x="561" 
d="M488 677q0 -241 -17 -347q-31 -193 -135 -305q-44 -47 -107 -50q-82 -3 -131 54q-98 114 -98 320q0 80 36 342q13 21 83 21q57 0 63 -16l-22 -178q-12 -104 -12 -181q0 -109 27 -169q14 -32 56 -32q11 0 18 4q71 53 93 318q4 52 10 210q9 21 77 21q50 0 59 -12zM410 809
q-100 -10 -149 -10q-22 0 -66.5 0.5t-67.5 0.5q-8 2 -22 10q-1 13 3 17l17 13l122 15q33 4 122 10h15q39 0 39 -17q0 -8 -6 -20q-6 -13 -7 -19z" />
    <glyph glyph-name="umacron" unicode="&#x16b;" horiz-adv-x="635" 
d="M571 676q5 -148 -24 -307q-38 -206 -120 -324q-57 -82 -172 -82q-62 0 -110 26q-146 80 -146 298q0 75 18 186l28 172q71 36 129 43q22 3 24 1q6 -3 3 -20q-10 -61 -30 -182q-16 -102 -16 -182q0 -69 13 -137q4 -20 21 -36t37 -19q57 -8 87 61q43 97 67 239q3 16 40 249
q51 21 102 21q28 0 49 -7zM466 800q-100 -10 -149 -10q-22 0 -66.5 0.5t-67.5 0.5q-8 2 -22 10q-1 13 3 17l17 13l122 15q33 4 122 10h15q39 0 39 -17q0 -8 -6 -20q-6 -13 -7 -19z" />
    <glyph glyph-name="Ubreve" unicode="&#x16c;" horiz-adv-x="561" 
d="M488 677q0 -241 -17 -347q-31 -193 -135 -305q-44 -47 -107 -50q-82 -3 -131 54q-98 114 -98 320q0 80 36 342q13 21 83 21q57 0 63 -16l-22 -178q-12 -104 -12 -181q0 -109 27 -169q14 -32 56 -32q11 0 18 4q71 53 93 318q4 52 10 210q9 21 77 21q50 0 59 -12zM322 908
q-2 -12 -8 -23q-16 -35 -44 -37q-40 -2 -53 30q-7 8 -24 44q-5 10 -29 9q-16 0 -50 -25q-6 -1 -8 -20q5 -20 22 -44q22 -29 48 -45q41 -26 82 -26q77 3 130 56q28 35 33 53q8 19 7 28q-8 18 -48 25q-13 0 -36 1q-18 -10 -20 -14q0 1 -2 -12z" />
    <glyph glyph-name="ubreve" unicode="&#x16d;" horiz-adv-x="635" 
d="M571 676q5 -148 -24 -307q-38 -206 -120 -324q-57 -82 -172 -82q-62 0 -110 26q-146 80 -146 298q0 75 18 186l28 172q71 36 129 43q22 3 24 1q6 -3 3 -20q-10 -61 -30 -182q-16 -102 -16 -182q0 -69 13 -137q4 -20 21 -36t37 -19q57 -8 87 61q43 97 67 239q3 16 40 249
q51 21 102 21q28 0 49 -7zM378 885q-2 -12 -8 -23q-16 -35 -44 -37q-40 -2 -53 30q-7 8 -24 44q-5 10 -29 9q-16 0 -50 -25q-6 -1 -8 -20q5 -20 22 -44q22 -29 48 -45q41 -26 82 -26q77 3 130 56q28 35 33 53q8 19 7 28q-8 18 -48 25q-13 0 -36 1q-18 -10 -20 -14
q0 1 -2 -12z" />
    <glyph glyph-name="Uring" unicode="&#x16e;" horiz-adv-x="561" 
d="M488 677q0 -241 -17 -347q-31 -193 -135 -305q-44 -47 -107 -50q-82 -3 -131 54q-98 114 -98 320q0 80 36 342q13 21 83 21q57 0 63 -16l-22 -178q-12 -104 -12 -181q0 -109 27 -169q14 -32 56 -32q11 0 18 4q71 53 93 318q4 52 10 210q9 21 77 21q50 0 59 -12zM403 879
q0 -34 -26 -64q-33 -44 -96 -49q-23 0 -42 10q-39 21 -39 70q0 21 9 41q9 21 26 35q38 36 85 39q23 6 43 -7q40 -21 40 -75zM336 839q6 13 6 25q0 21 -13 34q-12 8 -24 6q-15 0 -31 -10q-17 -13 -17 -37q0 -11 4 -19q2 -6 10 -13q7 -5 14 -8q4 -2 14 -1q14 3 23.5 8.5
t13.5 14.5z" />
    <glyph glyph-name="uring" unicode="&#x16f;" horiz-adv-x="635" 
d="M571 676q5 -148 -24 -307q-38 -206 -120 -324q-57 -82 -172 -82q-62 0 -110 26q-146 80 -146 298q0 75 18 186l28 172q71 36 129 43q22 3 24 1q6 -3 3 -20q-10 -61 -30 -182q-16 -102 -16 -182q0 -69 13 -137q4 -20 21 -36t37 -19q57 -8 87 61q43 97 67 239q3 16 40 249
q51 21 102 21q28 0 49 -7zM438 870q0 -34 -26 -64q-33 -44 -96 -49q-23 0 -42 10q-39 21 -39 70q0 21 9 41q9 21 26 35q38 36 85 39q23 6 43 -7q40 -21 40 -75zM371 830q6 13 6 25q0 21 -13 34q-12 8 -24 6q-15 0 -31 -10q-17 -13 -17 -37q0 -11 4 -19q2 -6 10 -13
q7 -5 14 -8q4 -2 14 -1q14 3 23.5 8.5t13.5 14.5z" />
    <glyph glyph-name="Uhungarumlaut" unicode="&#x170;" horiz-adv-x="561" 
d="M488 677q0 -241 -17 -347q-31 -193 -135 -305q-44 -47 -107 -50q-82 -3 -131 54q-98 114 -98 320q0 80 36 342q13 21 83 21q57 0 63 -16l-22 -178q-12 -104 -12 -181q0 -109 27 -169q14 -32 56 -32q11 0 18 4q71 53 93 318q4 52 10 210q9 21 77 21q50 0 59 -12zM300 887
q-65 -91 -80 -102q-4 -2 -13 -2q-39 0 -42 6q6 20 22 55q11 24 19 36q3 8 13 17q8 9 24 16q23 7 38 4q18 0 23.5 -5.5t-4.5 -24.5zM468 886q-65 -90 -80 -101q-4 -2 -13 -2q-39 0 -43 7q7 21 25 54q9 23 17 36q3 8 13 17q8 9 24 16q23 6 38 4q18 0 23.5 -6t-4.5 -25z" />
    <glyph glyph-name="uhungarumlaut" unicode="&#x171;" horiz-adv-x="635" 
d="M571 676q5 -148 -24 -307q-38 -206 -120 -324q-57 -82 -172 -82q-62 0 -110 26q-146 80 -146 298q0 75 18 186l28 172q71 36 129 43q22 3 24 1q6 -3 3 -20q-10 -61 -30 -182q-16 -102 -16 -182q0 -69 13 -137q4 -20 21 -36t37 -19q57 -8 87 61q43 97 67 239q3 16 40 249
q51 21 102 21q28 0 49 -7zM329 871q-65 -91 -80 -102q-4 -2 -13 -2q-39 0 -42 6q6 20 22 55q11 24 19 36q3 8 13 17q8 9 24 16q23 7 38 4q18 0 23.5 -5.5t-4.5 -24.5zM497 870q-65 -90 -80 -101q-4 -2 -13 -2q-39 0 -43 7q7 21 25 54q9 23 17 36q3 8 13 17q8 9 24 16
q23 6 38 4q18 0 23.5 -6t-4.5 -25z" />
    <glyph glyph-name="Uogonek" unicode="&#x172;" horiz-adv-x="561" 
d="M189 -23q-55 10 -91 52q-98 114 -98 320q0 80 36 342q13 21 83 21q57 0 63 -16l-22 -178q-12 -104 -12 -181q0 -109 27 -169q14 -32 56 -32q11 0 18 4q71 53 93 318q4 52 10 210q9 21 77 21q50 0 59 -12q0 -241 -17 -347q-31 -193 -135 -305q-40 -42 -95 -49q2 -6 3 -10
q0 -11 -2 -25q-14 -5 -48 -13q-22 -10 -23 -24q2 -21 31 -31q26 -7 70 8q9 -24 1 -44q-11 -5 -33 -7q-48 -2 -84 16q-42 21 -48 56q2 18 16 27q8 6 30 14.5t32 16.5q3 3 4 12q-1 3 -1 5z" />
    <glyph glyph-name="uogonek" unicode="&#x173;" horiz-adv-x="635" 
d="M220 -35q-41 6 -75 24q-146 80 -146 298q0 75 18 186l28 172q71 36 129 43q22 3 24 1q6 -3 3 -20q-10 -61 -30 -182q-16 -102 -16 -182q0 -69 13 -137q4 -20 21 -36t37 -19q57 -8 87 61q43 97 67 239q3 16 40 249q51 21 102 21q28 0 49 -7q5 -148 -24 -307
q-38 -206 -120 -324q-53 -76 -155 -82q3 -11 5 -18q0 -11 -2 -25q-14 -5 -48 -13q-22 -10 -23 -24q2 -21 31 -31q26 -7 70 8q9 -24 1 -44q-11 -5 -33 -7q-48 -2 -84 16q-42 21 -48 56q2 18 16 27q8 6 30 14.5t32 16.5q3 3 4 12q-2 9 -3 14z" />
    <glyph glyph-name="Wcircumflex" unicode="&#x174;" horiz-adv-x="893" 
d="M823 649q3 -32 3 -68q0 -129 -40 -288q-33 -133 -80 -235q-44 -96 -63 -96q-2 -4 -15 -4q-24 0 -52 10q-34 13 -40 31l-54 154q-21 55 -60 148q-7 -1 -17 -23l-133 -303q-14 -19 -44 -19q-17 0 -43 8q-30 9 -38 20q-93 222 -136 514q-10 68 -10 116q0 32 3 64q0 8 39 13
q31 5 49 5q27 0 29 -7l34 -230q21 -136 57 -204q10 7 26 46q6 16 19 48q22 49 79 183q6 15 45 23q28 6 53 6q37 0 59 -11q37 -58 72 -143l60 -145q1 -4 3 -4q46 0 66 427q13 22 50 25q20 1 60 4q20 -5 19 -65zM513 787q0 -7 -11 -19t-15 -10q-12 6 -34 28q-24 24 -35 31
q-29 -25 -77 -59q-4 -2 -15 10t-11 19q0 1 47 61q28 37 49 48q3 1 6 0q14 -7 56 -53q40 -44 40 -56z" />
    <glyph glyph-name="wcircumflex" unicode="&#x175;" horiz-adv-x="955" 
d="M884 686q-8 -260 -21 -359q-27 -206 -106 -333q-28 -37 -90 -37q-25 0 -37 9q-68 51 -109 142q-14 32 -56 164q-123 -307 -243 -307q-70 0 -129 90q-53 108 -73 265q-7 52 -21 286q-1 20 83 50q68 24 106 30q15 0 14 -10q-10 -130 -10 -206q0 -162 33 -274q7 -14 18 -14
t20 14q119 191 169 372q4 14 55 14q64 0 68 -14q18 -64 55 -192q34 -112 62 -147q5 -2 9 -2q11 0 20 31q47 155 56 461q0 12 39 12q84 0 88 -45zM540 755q0 -7 -11 -19t-15 -10q-12 6 -34 28q-24 24 -35 31q-29 -25 -77 -59q-4 -2 -15 10t-11 19q0 1 47 61q28 37 49 48
q3 1 6 0q14 -7 56 -53q40 -44 40 -56z" />
    <glyph glyph-name="Ycircumflex" unicode="&#x176;" horiz-adv-x="642" 
d="M633 749q-10 -37 -37 -99q-70 -159 -187 -362l-198 -341q-8 -14 -119 -27q-24 -3 -24 9q0 5 3 12q47 86 194 394q-111 106 -262 273q-3 2 -3 6q0 16 128 83q10 4 27 10q120 -144 200 -210q53 100 105 226q9 22 21 28t38 6q18 0 114 -8zM416 787q0 -7 -11 -19t-15 -10
q-12 6 -34 28q-24 24 -35 31q-29 -25 -77 -59q-4 -2 -15 10t-11 19q0 1 47 61q28 37 49 48q3 1 6 0q14 -7 56 -53q40 -44 40 -56z" />
    <glyph glyph-name="ycircumflex" unicode="&#x177;" horiz-adv-x="648" 
d="M679 736q-140 -174 -292 -403q-17 -26 -265 -414q-11 -10 -24 -10q-15 0 -38 15q-31 20 -36 22l-23 23q28 63 98 182l118 199l-216 283v18q60 35 81 46q44 22 85 35q97 -117 153 -242q95 164 166 273q33 -1 97 -4q52 -4 96 -23zM431 834q0 -7 -11 -19t-15 -10
q-12 6 -34 28q-24 24 -35 31q-29 -25 -77 -59q-4 -2 -15 10t-11 19q0 1 47 61q28 37 49 48q3 1 6 0q14 -7 56 -53q40 -44 40 -56z" />
    <glyph glyph-name="Zacute" unicode="&#x179;" horiz-adv-x="508" 
d="M432 142q17 1 17 -46q0 -56 -29 -85q-26 -13 -76 -18.5t-150 -15.5q-28 -3 -70 2q-57 7 -61 20q-10 73 -10 64q0 14 5 25q22 50 100 243q83 206 84 217q-35 2 -100 -9q-70 -12 -101 -12q-19 0 -21 5q-23 58 -20 119q-1 7 -1 12q0 15 11 20q134 26 357 26q31 0 40 -5
q13 -7 16 -32q4 -35 -70 -201l-137 -303q-17 -38 -17 -42q0 -5 6 -5q-4 0 25 3q120 13 202 18zM414 910q-45 -34 -233 -101q-7 -3 -29.5 13.5t-22.5 25.5q0 18 85 79q96 69 114 69t52.5 -34.5t34.5 -48.5q0 -2 -1 -3z" />
    <glyph glyph-name="zacute" unicode="&#x17a;" horiz-adv-x="476" 
d="M424 672q5 -48 -208 -526q-15 -33 -16 -38q-2 -9 5 -9q4 1 26 4l45 6q17 1 62 3q17 1 17 -45q0 -56 -29 -85q-14 -8 -28 -15q-5 -1 -104 -12q-27 -3 -70 2q-56 7 -60 20q-11 73 -11 64q0 12 6 25q23 50 100 252q81 212 83 230q-27 1 -103 -19q-80 -22 -107 -22
q-10 0 -11 3q-24 59 -21 120q-4 25 11 31q246 48 357 48q31 0 40 -5q13 -7 16 -32zM401 878q-45 -34 -233 -101q-7 -3 -29.5 13.5t-22.5 25.5q0 18 85 79q96 69 114 69t52.5 -34.5t34.5 -48.5q0 -2 -1 -3z" />
    <glyph glyph-name="Zdotaccent" unicode="&#x17b;" horiz-adv-x="508" 
d="M432 142q17 1 17 -46q0 -56 -29 -85q-26 -13 -76 -18.5t-150 -15.5q-28 -3 -70 2q-57 7 -61 20q-10 73 -10 64q0 14 5 25q22 50 100 243q83 206 84 217q-35 2 -100 -9q-70 -12 -101 -12q-19 0 -21 5q-23 58 -20 119q-1 7 -1 12q0 15 11 20q134 26 357 26q31 0 40 -5
q13 -7 16 -32q4 -35 -70 -201l-137 -303q-17 -38 -17 -42q0 -5 6 -5q-4 0 25 3q120 13 202 18zM270 869q3 -11 3 -21q0 -58 -65 -52q-38 10 -38 40q0 19 18 35t42 16q31 0 40 -18z" />
    <glyph glyph-name="zdotaccent" unicode="&#x17c;" horiz-adv-x="476" 
d="M424 672q5 -48 -208 -526q-15 -33 -16 -38q-2 -9 5 -9q4 1 26 4l45 6q17 1 62 3q17 1 17 -45q0 -56 -29 -85q-14 -8 -28 -15q-5 -1 -104 -12q-27 -3 -70 2q-56 7 -60 20q-11 73 -11 64q0 12 6 25q23 50 100 252q81 212 83 230q-27 1 -103 -19q-80 -22 -107 -22
q-10 0 -11 3q-24 59 -21 120q-4 25 11 31q246 48 357 48q31 0 40 -5q13 -7 16 -32zM269 861q3 -11 3 -21q0 -58 -65 -52q-38 10 -38 40q0 19 18 35t42 16q31 0 40 -18z" />
    <glyph glyph-name="Zcaron" unicode="&#x17d;" horiz-adv-x="508" 
d="M465 142q17 1 17 -46q0 -56 -29 -85q-26 -13 -76 -18.5t-150 -15.5q-28 -3 -70 2q-57 7 -61 20q-10 73 -10 64q0 14 5 25q22 50 100 243q83 206 84 217q-35 2 -100 -9q-70 -12 -101 -12q-19 0 -21 5q-23 58 -20 119q-1 7 -1 12q0 15 11 20q134 26 357 26q31 0 40 -5
q13 -7 16 -32q4 -35 -70 -201l-137 -303q-17 -38 -17 -42q0 -5 6 -5q-4 0 25 3q120 13 202 18zM279 850q-71 -48 -94 -57q-9 -7 -17 -3q-28 18 -72 54q-99 78 -98 89l37 37t38 35q55 -69 111 -127q33 38 59 69q33 39 57 57q24 -28 35 -44t21 -35q-10 -17 -77 -75z" />
    <glyph glyph-name="zcaron" unicode="&#x17e;" horiz-adv-x="476" 
d="M453 672q5 -48 -208 -526q-15 -33 -16 -38q-2 -9 5 -9q4 1 26 4l45 6q17 1 62 3q17 1 17 -45q0 -56 -29 -85q-14 -8 -28 -15q-5 -1 -104 -12q-27 -3 -70 2q-56 7 -60 20q-11 73 -11 64q0 12 6 25q23 50 100 252q81 212 83 230q-27 1 -103 -19q-80 -22 -107 -22
q-10 0 -11 3q-24 59 -21 120q-4 25 11 31q246 48 357 48q31 0 40 -5q13 -7 16 -32zM278 842q-71 -48 -94 -57q-9 -7 -17 -3q-28 18 -72 54q-99 78 -98 89l37 37t38 35q55 -69 111 -127q33 38 59 69q33 39 57 57q24 -28 35 -44t21 -35q-10 -17 -77 -75z" />
    <glyph glyph-name="florin" unicode="&#x192;" horiz-adv-x="781" 
d="M395 901q-50 -48 -84 -226q-76 -3 -86 -11q-16 -4 -30 -14q-27 -21 -12 -53q2 -6 109 -29q-70 -520 -117 -557q-17 -12 -33 6q-10 10 -28 45q-18 33 -28 43q-16 15 -33 -3q-71 -79 -49 -124q121 -152 216 -113q55 22 92 102q24 50 79 465q10 55 21 111q55 -11 97 -19
q117 146 81 150q-32 4 -148 4q31 123 56 157q25 37 55 14q28 -22 35 -79q27 8 51 4l40 24q14 27 -29 103q-50 88 -138 67q-67 -18 -117 -67z" />
    <glyph glyph-name="AEacute" unicode="&#x1fc;" horiz-adv-x="774" 
d="M324 266q-14 48 -56 170l-25 66l-17 -69q-13 -48 -37 -173l-4 -26l26 1q16 1 113 31zM339 161q-99 -12 -175 -37l-6 -2l-2 -6q-7 -34 -26 -92q-14 -26 -52 -25q-35 1 -80 7q16 143 77 350q25 86 112 353q5 7 42 10q34 3 46 1q18 -26 55 -97q28 -65 55 -137q21 85 52 165
q142 31 354 36q5 -28 -8 -68t-33 -62q-118 -7 -211 -17l-9 -1l-1 -9q0 -5 -14 -60q-10 -40 -3 -57l3 -7h7q13 0 47 2q45 3 68 4q61 3 98 -6q3 -15 3 -32q0 -29 -8 -65q-41 -9 -116 -17q-56 -6 -112 -14l-7 -1l-2 -7q-12 -44 -4 -120l1 -9l10 -1q19 -2 131 12q32 4 60 4
q33 0 59 -6q-1 -19 -6 -69q-6 -44 -33 -49q-73 -14 -170 -22l-168 -15q-16 3 -27.5 16.5t-11.5 30.5q2 62 5 119zM551 910q-45 -34 -233 -101q-7 -3 -29.5 13.5t-22.5 25.5q0 18 85 79q96 69 114 69t52.5 -34.5t34.5 -48.5q0 -2 -1 -3z" />
    <glyph glyph-name="aeacute" unicode="&#x1fd;" horiz-adv-x="801" 
d="M298 275l-1 9q-2 15 -37 168l-9 39l-12 -39q-21 -69 -44 -183l-3 -15l16 3q23 4 82 15zM467 188l10 -50q49 0 140 7l148 11q25 -48 24 -115q-109 -33 -209 -45q-33 -3 -126 -14q-22 -6 -56 -12q-25 -6 -31 1q-2 3 -8 28q-1 2 -1 5q-11 9 -12 21q-3 32 -5 65q-6 33 -13 75
l-2 12l-11 -3q-31 -6 -127 -28q-11 -4 -22 -43q-14 -56 -34 -122q-64 -4 -124 26l-2 1l1 3q-5 42 98 363q100 289 121 298q17 6 38 6q23 0 51 -7q19 -36 38 -80q3 30 7 61q4 28 31 29q187 8 349 -9q15 -37 15 -56q0 -6 -5 -50q-54 -16 -139 -17q-97 -2 -134 -8
q-5 -73 -5 -82q0 -41 10 -54q36 -1 116 1q77 2 112 -6q7 -28 7 -58t-7 -55q-95 -6 -241 -16q0 12 -2 -69v-14zM582 878q-45 -34 -233 -101q-7 -3 -29.5 13.5t-22.5 25.5q0 18 85 79q96 69 114 69t52.5 -34.5t34.5 -48.5q0 -2 -1 -3z" />
    <glyph glyph-name="Oslashacute" unicode="&#x1fe;" horiz-adv-x="673" 
d="M356 565q-10 1 -22 1q-74 0 -117 -62q-72 -103 -72 -206q0 -27 5 -52q35 59 79 127q42 66 127 192zM250 127h1q18 -8 39 -8q40 0 75 32q31 28 47 69q33 84 33 166q0 27 -4 51q-85 -143 -191 -310zM530 588q74 -92 74 -220q0 -138 -73 -255q-87 -139 -243 -139
q-66 0 -120 24q-17 -26 -34 -53q-59 2 -101 46q-7 8 -7 18q14 34 34 75q-60 81 -60 211q0 87 32 166q32 84 93 141q108 102 203 102q51 0 102 -30q13 21 28 42q13 4 25 4q28 0 96 -47q-23 -41 -49 -85zM492 910q-45 -34 -233 -101q-7 -3 -29.5 13.5t-22.5 25.5q0 18 85 79
q96 69 114 69t52.5 -34.5t34.5 -48.5q0 -2 -1 -3z" />
    <glyph glyph-name="oslashacute" unicode="&#x1ff;" horiz-adv-x="730" 
d="M367 537q-44 -17 -90 -54q-87 -68 -113 -143q-16 -47 -14 -99q1 -20 5 -37q44 76 104 169q38 58 108 164zM273 115q19 3 65 14q55 13 118 109q73 111 71 223q0 21 -9 42q-1 4 -3 7q-105 -177 -242 -395zM591 640q25 -24 40 -58q34 -74 34 -161q0 -220 -190 -369
q-116 -91 -224 -90q-40 0 -72 6q-8 -12 -15 -23q-59 2 -101 46q-7 8 -7 18q3 8 6 15q-63 69 -63 192q0 61 17 127q31 121 143 222q108 97 233 126q26 6 52 6q15 0 30 -2q7 10 14 21q13 4 25 4q28 0 96 -47q-9 -16 -18 -33zM522 878q-45 -34 -233 -101q-7 -3 -29.5 13.5
t-22.5 25.5q0 18 85 79q96 69 114 69t52.5 -34.5t34.5 -48.5q0 -2 -1 -3z" />
    <glyph glyph-name="Scommaaccent" unicode="&#x218;" 
d="M424 149q-54 -171 -292 -219l-5 -1l-2 4q-2 4 -29 37q-18 22 -18 34q0 16 28 36t86 62q53 40 65 78q10 31 0 49q-13 25 -61 47q-8 5 -77 30q-120 44 -120 119q0 32 19 75q49 111 153 183q37 25 227 107l7 3l2 -8q3 -39 11 -129l1 -5l-5 -2q-81 -32 -164 -93
q-16 -11 -68 -65q-22 -27 -22 -53q0 -13 6 -27q24 -22 86 -47q82 -33 94 -39q87 -44 87 -119q0 -28 -9 -57zM292 -193q-20 -99 -70 -99q-2 0 -2 4q0 6 5.5 23t5.5 25q0 13 -14 9q-30 0 -50.5 21.5t-20.5 51.5q0 29 18.5 49t47.5 20q26 0 51 -16q31 -20 31 -65q0 -13 -2 -23z
" />
    <glyph glyph-name="scommaaccent" unicode="&#x219;" 
d="M280 -169q-20 -99 -70 -99q-2 0 -2 4q0 6 5.5 23t5.5 25q0 13 -14 9q-30 0 -50.5 21.5t-20.5 51.5q0 29 18.5 49t47.5 20q26 0 51 -16q31 -20 31 -65q0 -13 -2 -23zM376 666l-3 -5q-185 -79 -200 -191q-1 -10 -1 -23q0 -49 44 -93q28 -23 84 -70q69 -60 61 -140
q-10 -103 -86 -142q-59 -30 -128 -30q-53 0 -98 19l-3 4q-4 11 -10 35q-3 24 12 39l5 1q23 -9 50 -9q46 0 87 23q24 20 24 59q0 16 -4 32q-20 33 -61 73l-70 66q-85 84 -80 171q6 103 124 192q94 70 221 107q6 2 14.5 -1t11.5 -3l5 1l1 -5q9 -46 0 -110z" />
    <glyph glyph-name="uni021A" unicode="&#x21a;" 
d="M280 -169q-20 -99 -70 -99q-2 0 -2 4q0 6 5.5 23t5.5 25q0 13 -14 9q-30 0 -50.5 21.5t-20.5 51.5q0 29 18.5 49t47.5 20q26 0 51 -16q31 -20 31 -65q0 -13 -2 -23zM462 701q1 -49 -4 -137q-74 -3 -154 -25q-15 -107 -22 -275l-12 -278q-57 -14 -69 -14q-26 0 -43 14
q-6 53 -6 112q0 64 10 190.5t10 190.5q0 26 -1 51q-23 2 -64 -5q-45 -7 -63 -7q-19 0 -32 5q-9 67 -9 111q0 17 1 30q22 2 198 31q121 20 202 20q25 0 49 -2q9 -10 9 -12z" />
    <glyph glyph-name="uni021B" unicode="&#x21b;" 
d="M479 698q2 -31 2 -64q0 -32 -2 -64q-40 -1 -118 -5q-13 -1 -38 -4q-5 -4 -9 -50q-17 -174 -58 -530q-11 -10 -41 -7l-50 5q-3 3 -6 4q-6 75 -6 187q0 208 10 358l2 30l-68 2q-16 0 -55 1q-43 2 -40 29l13 106q118 6 248 6q104 0 216 -4zM280 -169q-20 -99 -70 -99
q-2 0 -2 4q0 6 5.5 23t5.5 25q0 13 -14 9q-30 0 -50.5 21.5t-20.5 51.5q0 29 18.5 49t47.5 20q26 0 51 -16q31 -20 31 -65q0 -13 -2 -23z" />
    <glyph glyph-name="cuircumflex" unicode="&#x2c6;" 
d="M202 755q0 -7 -11 -19t-15 -10q-12 6 -34 28q-24 24 -35 31q-29 -25 -77 -59q-4 -2 -15 10t-11 19q0 1 47 61q28 37 49 48q3 1 6 0q14 -7 56 -53q40 -44 40 -56z" />
    <glyph glyph-name="glyph48" unicode="&#x2c7;" 
d="M358 719q-71 -48 -94 -57q-9 -7 -17 -3q-28 18 -72 54q-99 78 -98 89l37 37t38 35q55 -69 111 -127q33 38 59 69q33 39 57 57q24 -28 35 -44t21 -35q-10 -17 -77 -75z" />
    <glyph glyph-name="uni02C9" unicode="&#x2c9;" 
d="M353 634q-100 -10 -149 -10q-22 0 -66.5 0.5t-67.5 0.5q-8 2 -22 10q-1 13 3 17l17 13l122 15q33 4 122 10h15q39 0 39 -17q0 -8 -6 -20q-6 -13 -7 -19z" />
    <glyph glyph-name="breve" unicode="&#x2d8;" 
d="M340 778q-2 -12 -8 -23q-16 -35 -44 -37q-40 -2 -53 30q-7 8 -24 44q-5 10 -29 9q-16 0 -50 -25q-6 -1 -8 -20q5 -20 22 -44q22 -29 48 -45q41 -26 82 -26q77 3 130 56q28 35 33 53q8 19 7 28q-8 18 -48 25q-13 0 -36 1q-18 -10 -20 -14q0 1 -2 -12z" />
    <glyph glyph-name="dotaccent" unicode="&#x2d9;" 
d="M317 732q3 -11 3 -21q0 -58 -65 -52q-38 10 -38 40q0 19 18 35t42 16q31 0 40 -18z" />
    <glyph glyph-name="ring" unicode="&#x2da;" 
d="M323 751q0 -34 -26 -64q-33 -44 -96 -49q-23 0 -42 10q-39 21 -39 70q0 21 9 41q9 21 26 35q38 36 85 39q23 6 43 -7q40 -21 40 -75zM256 711q6 13 6 25q0 21 -13 34q-12 8 -24 6q-15 0 -31 -10q-17 -13 -17 -37q0 -11 4 -19q2 -6 10 -13q7 -5 14 -8q4 -2 14 -1
q14 3 23.5 8.5t13.5 14.5z" />
    <glyph glyph-name="ogonek" unicode="&#x2db;" 
d="M241 -139q-11 -5 -33 -7q-48 -2 -84 16q-42 21 -48 56q2 18 16 27q8 6 30 14.5t32 16.5q3 3 4 12q-6 22 0.5 22.5t16.5 2.5q9 -3 28 0q6 -20 9 -31q0 -11 -2 -25q-14 -5 -48 -13q-22 -10 -23 -24q2 -21 31 -31q26 -7 70 8q9 -24 1 -44z" />
    <glyph glyph-name="tilde" unicode="&#x2dc;" 
d="M361 675q-30 -51 -87 -50q-28 0 -65.5 26t-65.5 27q-57 0 -100 -44q-9 12 -7 44q29 80 105 89q29 3 66 -32q39 -38 64 -38q50 -2 89 30q5 0 5 -17q0 -12 -4 -35z" />
    <glyph glyph-name="hungarumlaut" unicode="&#x2dd;" 
d="M262 736q-65 -91 -80 -102q-4 -2 -13 -2q-39 0 -42 6q6 20 22 55q11 24 19 36q3 8 13 17q8 9 24 16q23 7 38 4q18 0 23.5 -5.5t-4.5 -24.5zM430 735q-65 -90 -80 -101q-4 -2 -13 -2q-39 0 -43 7q7 21 25 54q9 23 17 36q3 8 13 17q8 9 24 16q23 6 38 4q18 0 23.5 -6
t-4.5 -25z" />
    <glyph glyph-name="tonos" unicode="&#x384;" 
d="M369 737q-65 -90 -80 -101q-4 -2 -13 -2q-39 0 -43 7q7 21 25 54q9 23 17 36q3 8 13 17q8 9 24 16q23 6 38 4q18 0 23.5 -6t-4.5 -25z" />
    <glyph glyph-name="dieresistonos" unicode="&#x385;" 
d="M449 679q-19 -24 -52 -24q-12 0 -23 3q-32 13 -42 39q-1 6 -1 12q0 28 18 47q18 32 54 32q34 0 46 -32q9 -23 9 -43q0 -19 -9 -34zM139 755q4 -15 4 -29q0 -76 -75 -68q-44 13 -44 53q0 25 21 46.5t48 21.5q36 0 46 -24zM214 778q19 73 27 81q8 9 46 5t45 -12
q5 -5 -33 -68q-7 -12 -30 -49q-17 -26 -22 -35q-8 -4 -17 -7q-19 -5 -27 1q-10 7 11 84z" />
    <glyph glyph-name="Alphatonos" unicode="&#x386;" horiz-adv-x="566" 
d="M130 698q-65 -90 -80 -101q-4 -2 -13 -2q-39 0 -43 7q7 21 25 54q9 23 17 36q3 8 13 17q8 9 24 16q23 6 38 4q18 0 23.5 -6t-4.5 -25zM517 40q-34 -22 -97 -20q-25 35 -58 133l-3 9l-9 -1q-102 -11 -179 -37l-6 -2l-2 -6q-7 -34 -26 -92q-14 -26 -52 -25q-35 1 -80 7
q16 143 77 350q25 86 112 353q5 7 42 10q34 3 46 1q18 -26 55 -97q106 -241 180 -583zM331 266q-14 48 -56 170l-25 66l-17 -69q-13 -48 -37 -173l-4 -26l26 1q16 1 113 31z" />
    <glyph glyph-name="Epsilontonos" unicode="&#x388;" horiz-adv-x="616" 
d="M146 737q-65 -90 -80 -101q-4 -2 -13 -2q-39 0 -43 7q7 21 25 54q9 23 17 36q3 8 13 17q8 9 24 16q23 6 38 4q18 0 23.5 -6t-4.5 -25zM535 687q5 -28 -8 -68t-33 -62q-118 -7 -211 -17l-9 -1l-1 -9q0 -5 -14 -60q-10 -40 -3 -57l3 -7h7q13 0 47 2q45 3 68 4q61 3 98 -6
q3 -15 3 -32q0 -29 -8 -65q-41 -9 -116 -17q-56 -6 -112 -14l-7 -1l-2 -7q-12 -44 -4 -120l1 -9l10 -1q19 -2 131 12q32 4 60 4q33 0 59 -6q-1 -19 -6 -69q-6 -44 -33 -49q-73 -14 -170 -22l-168 -15q-16 3 -27.5 16.5t-11.5 30.5q5 184 25 316q24 155 78 293q142 31 354 36
z" />
    <glyph glyph-name="Etatonos" unicode="&#x389;" horiz-adv-x="704" 
d="M136 737q-65 -90 -80 -101q-4 -2 -13 -2q-39 0 -43 7q7 21 25 54q9 23 17 36q3 8 13 17q8 9 24 16q23 6 38 4q18 0 23.5 -6t-4.5 -25zM621 666q-22 -274 -96 -680q-15 -10 -44 -9q-12 1 -55 7q-9 53 -9 128q0 21 1 69t1 70v11l-11 1q-76 7 -135 -10l-7 -2l-2 -7
q-10 -78 -32 -223q-41 -16 -81 -16q-20 0 -36 5q-8 5 -10 12l25 340q19 191 62 335q32 16 82 16q18 0 38 -2q-1 -56 -12 -155q-5 -42 -8.5 -89t-4.5 -52l-1 -9l10 -2q54 -11 124 -3l9 1l1 9q20 176 44 266q6 14 44 14q20 0 33 -4q49 -6 70 -21z" />
    <glyph glyph-name="Iotatonos" unicode="&#x38a;" horiz-adv-x="401" 
d="M132 737q-65 -90 -80 -101q-4 -2 -13 -2q-39 0 -43 7q7 21 25 54q9 23 17 36q3 8 13 17q8 9 24 16q23 6 38 4q18 0 23.5 -6t-4.5 -25zM310 687q-13 -305 -51 -687q-34 -16 -63 -16q-14 0 -48 11q-10 3 -15 12q-4 52 -4 110q0 125 19 283q8 70 35 271q22 23 59 23
q12 0 36 -3z" />
    <glyph glyph-name="Omicrontonos" unicode="&#x38c;" horiz-adv-x="706" 
d="M137 737q-65 -90 -80 -101q-4 -2 -13 -2q-39 0 -43 7q7 21 25 54q9 23 17 36q3 8 13 17q8 9 24 16q23 6 38 4q18 0 23.5 -6t-4.5 -25zM633 368q0 -138 -73 -255q-87 -139 -243 -139q-85 0 -151 41q-137 85 -137 280q0 87 32 166q32 84 93 141q108 102 203 102
q64 0 127 -46q149 -108 149 -290zM451 510q-16 39 -36 49q-14 7 -52 7q-74 0 -117 -62q-72 -103 -72 -206q0 -43 13 -83q18 -54 93 -88q18 -8 39 -8q40 0 75 32q31 28 47 69q33 84 33 166q0 68 -23 124z" />
    <glyph glyph-name="Upsilontonos" unicode="&#x38e;" horiz-adv-x="801" 
d="M137 737q-65 -90 -80 -101q-4 -2 -13 -2q-39 0 -43 7q7 21 25 54q9 23 17 36q3 8 13 17q8 9 24 16q23 6 38 4q18 0 23.5 -6t-4.5 -25zM716 749q-10 -37 -37 -99q-70 -159 -187 -362l-198 -341q-8 -14 -119 -27q-24 -3 -24 9q0 5 3 12q47 86 194 394q-111 106 -262 273
q-3 2 -3 6q0 16 128 83q10 4 27 10q120 -144 200 -210q53 100 105 226q9 22 21 28t38 6q18 0 114 -8z" />
    <glyph glyph-name="Omegatonos" unicode="&#x38f;" horiz-adv-x="788" 
d="M137 751q-65 -90 -80 -101q-4 -2 -13 -2q-39 0 -43 7q7 21 25 54q9 23 17 36q3 8 13 17q8 9 24 16q23 6 38 4q18 0 23.5 -6t-4.5 -25zM338 86l4 -85q-38 2 -75 2q-26 0 -170 -2q-15 78 1 120q34 0 60 -1q-70 89 -70 233q-2 105 21 174q31 106 103 178q88 113 270 118
q91 -4 185 -107q76 -89 72 -285q0 -149 -79 -273q-14 -23 -31 -42q46 1 119 3q29 -22 -21 -118q-148 2 -174 2q-38 0 -80 -4l1 112q8 1 17 1q7 3 17 7q20 27 42.5 62t36.5 86t10.5 125t-26 131.5t-37.5 71.5t-56.5 32t-91 -0.5t-95 -76.5t-70.5 -148t-2 -188.5t122 -86.5z
" />
    <glyph glyph-name="iotadieresistonos" unicode="&#x390;" 
d="M135 15q-1 204 8 302q3 45 9 123.5t13 132.5q1 46 29 63q22 8 57 14t47 -11t-17 -295q2 -67 -27 -264q-1 -16 -2 -31q-7 -78 -42 -73q-15 3 -37 19q-26 17 -38 20zM404 679q-19 -24 -52 -24q-12 0 -23 3q-32 13 -42 39q-1 6 -1 12q0 28 18 47q18 32 54 32q34 0 46 -32
q9 -23 9 -43q0 -19 -9 -34zM94 755q4 -15 4 -29q0 -76 -75 -68q-44 13 -44 53q0 25 21 46.5t48 21.5q36 0 46 -24zM169 778q19 73 27 81q8 9 46 5t45 -12q5 -5 -33 -68q-7 -12 -30 -49q-17 -26 -22 -35q-8 -4 -17 -7q-19 -5 -27 1q-10 7 11 84z" />
    <glyph glyph-name="Alpha" unicode="&#x391;" horiz-adv-x="566" 
d="M510 40q-34 -22 -97 -20q-25 35 -58 133l-3 9l-9 -1q-102 -11 -179 -37l-6 -2l-2 -6q-7 -34 -26 -92q-14 -26 -52 -25q-35 1 -80 7q16 143 77 350q25 86 112 353q5 7 42 10q34 3 46 1q18 -26 55 -97q106 -241 180 -583zM324 266q-14 48 -56 170l-25 66l-17 -69
q-13 -48 -37 -173l-4 -26l26 1q16 1 113 31z" />
    <glyph glyph-name="Beta" unicode="&#x392;" horiz-adv-x="574" 
d="M506 287q5 -15 5 -33q0 -53 -25 -92q-62 -97 -171 -137q-49 -18 -243 -53q-17 -3 -19 -3q-21 0 -26 32q-28 180 -28 409q0 119 8 217h4q86 43 119 56q89 35 157 35q72 0 124 -41q24 -19 24 -71q0 -22 -7 -44q-21 -66 -129 -176q59 -10 118 -19q69 -20 89 -80zM265 582
q1 24 -7 28q-13 5 -28 5q-57 0 -104 -50q-7 -44 -7 -173q60 24 101 74q43 54 45 116zM333 264q-19 21 -59 21q-70 0 -155 -49q-2 -70 11 -135q117 14 176 68q33 30 33 75q0 13 -6 20z" />
    <glyph glyph-name="Gamma" unicode="&#x393;" horiz-adv-x="444" 
d="M125 89q-1 -86 -5 -92q-9 -16 -48 -16q-56 0 -67 18q-5 97 -5 179q0 286 63 489q213 47 369 51q4 -14 4 -36q0 -70 -29 -105q-68 -3 -240 -18l-9 -1v-9q-3 -21 -10 -63q-2 -45 -7 -105l-8 -150q-7 -52 -8 -142z" />
    <glyph glyph-name="uni0394" unicode="&#x394;" horiz-adv-x="568" 
d="M265 467q-85 -177 -162 -371q132 16 291 28q-65 164 -129 343zM69 10q-1 -1 -1 -2q-24 -8 -40 -2q-8 3 -23 20q-5 5 -5 14q13 50 31 105q37 119 95 264q26 65 102 262q17 0 34 1h6q14 3 36 6q44 6 60 3q70 -194 102 -337q43 -176 62 -244q18 -61 17.5 -74t-40.5 -21
q-27 -6 -46 -4q-53 -12 -148 -4q-99 -3 -178 5q-33 4 -64 8z" />
    <glyph glyph-name="Epsilon" unicode="&#x395;" horiz-adv-x="492" 
d="M456 687q5 -28 -8 -68t-33 -62q-118 -7 -211 -17l-9 -1l-1 -9q0 -5 -14 -60q-10 -40 -3 -57l3 -7h7q13 0 47 2q45 3 68 4q61 3 98 -6q3 -15 3 -32q0 -29 -8 -65q-41 -9 -116 -17q-56 -6 -112 -14l-7 -1l-2 -7q-12 -44 -4 -120l1 -9l10 -1q19 -2 131 12q32 4 60 4
q33 0 59 -6q-1 -19 -6 -69q-6 -44 -33 -49q-73 -14 -170 -22l-168 -15q-16 3 -27.5 16.5t-11.5 30.5q5 184 25 316q24 155 78 293q142 31 354 36z" />
    <glyph glyph-name="Zeta" unicode="&#x396;" horiz-adv-x="508" 
d="M432 142q17 1 17 -46q0 -56 -29 -85q-26 -13 -76 -18.5t-150 -15.5q-28 -3 -70 2q-57 7 -61 20q-10 73 -10 64q0 14 5 25q22 50 100 243q83 206 84 217q-35 2 -100 -9q-70 -12 -101 -12q-19 0 -21 5q-23 58 -20 119q-1 7 -1 12q0 15 11 20q134 26 357 26q31 0 40 -5
q13 -7 16 -32q4 -35 -70 -201l-137 -303q-17 -38 -17 -42q0 -5 6 -5q-4 0 25 3q120 13 202 18z" />
    <glyph glyph-name="Eta" unicode="&#x397;" horiz-adv-x="575" 
d="M518 666q-22 -274 -96 -680q-15 -10 -44 -9q-12 1 -55 7q-9 53 -9 128q0 21 1 69t1 70v11l-11 1q-76 7 -135 -10l-7 -2l-2 -7q-10 -78 -32 -223q-41 -16 -81 -16q-20 0 -36 5q-8 5 -10 12l25 340q19 191 62 335q32 16 82 16q18 0 38 -2q-1 -56 -12 -155q-5 -42 -8.5 -89
t-4.5 -52l-1 -9l10 -2q54 -11 124 -3l9 1l1 9q20 176 44 266q6 14 44 14q20 0 33 -4q49 -6 70 -21z" />
    <glyph glyph-name="Theta" unicode="&#x398;" horiz-adv-x="696" 
d="M604 368q0 -138 -73 -255q-87 -139 -243 -139q-85 0 -151 41q-137 85 -137 280q0 87 32 166q32 84 93 141q108 102 203 102q64 0 127 -46q149 -108 149 -290zM422 510q-16 39 -36 49q-14 7 -52 7q-74 0 -117 -62q-72 -103 -72 -206q0 -43 13 -83q18 -54 93 -88
q18 -8 39 -8q40 0 75 32q31 28 47 69q33 84 33 166q0 68 -23 124zM379 307q-51 -8 -85 -8q-16 0 -47 -1t-47 -1q-6 2 -15 15q-1 21 2 38l11 12l17 6q92 25 154 34q6 1 11 1q28 0 28 -29v-33q-2 -33 -29 -34z" />
    <glyph glyph-name="Iota" unicode="&#x399;" horiz-adv-x="250" 
d="M181 687q-13 -305 -51 -687q-34 -16 -63 -16q-14 0 -48 11q-10 3 -15 12q-4 52 -4 110q0 125 19 283q8 70 35 271q22 23 59 23q12 0 36 -3z" />
    <glyph glyph-name="Kappa" unicode="&#x39a;" horiz-adv-x="484" 
d="M446 93q-1 -17 -43 -67t-54 -47q-3 0 -32 23q-55 59 -169 169q9 -58 11 -165q0 -18 -50 -24q-33 -1 -66 -3q-26 4 -27 36q-1 15 -11 253q-7 161 -7 251q0 79 4 146q4 15 67 25q53 8 79 7q10 -8 10 -19q0 -5 -1 -9q-10 -197 -9 -228q21 25 183 196q4 3 10 3q20 0 55 -35.5
t34 -55.5q-16 -17 -206 -251q76 -72 222 -205z" />
    <glyph glyph-name="Lambda" unicode="&#x39b;" horiz-adv-x="637" 
d="M564 30q-11 -25 -22 -35q-25 -18 -70 57q-10 14 -18 30q-93 218 -125 286l-95 265v47q2 12 22 24q92 31 106 -9q23 -37 42.5 -95.5t88.5 -233.5q94 -277 91 -301q-8 -8 -20 -35zM248 705l32 -97q12 35 10 -39q-40 -149 -201 -523q-11 -32 -40.5 -38.5t-41.5 -4.5
q-27 2 29 147q11 29 24 60q133 369 188 495z" />
    <glyph glyph-name="Mu" unicode="&#x39c;" horiz-adv-x="782" 
d="M698 25q-8 -19 -41 -30q-25 -8 -52 -8q-31 0 -34 9q-11 131 -22 356q-4 4 -6 4t-5 -4l-139 -276q-16 -26 -40 -24q-37 -3 -51 16q-10 20 -30 59q-17 32 -43 94q-27 66 -42 95q-24 -105 -35 -148q-26 -104 -44 -139q-22 -44 -66 -41q-40 -2 -49 21q25 224 131 654
q16 15 62 15q21 0 30 -5q49 -99 131 -327q127 214 227 339q38 4 55 4q42 0 53 -33q4 -15 4.5 -70t6.5 -203q5 -122 5 -201q0 -85 -6 -157z" />
    <glyph glyph-name="Nu" unicode="&#x39d;" horiz-adv-x="659" 
d="M574 341q-8 -49 -16.5 -151.5t-18.5 -154.5q-24 -24 -55 -27q-39 42 -333 335l-6 -168q-4 -96 -23 -163q-45 -21 -59 -21q-23 0 -59 27v421q-1 125 -5 206q22 41 79 45q123 -138 347 -357q6 47 9 152q3 98 7 156q3 17 44 33q31 11 58 11q9 0 17 -1q26 -53 26 -137
q0 -34 -6 -103t-6 -103z" />
    <glyph glyph-name="Xi" unicode="&#x39e;" horiz-adv-x="580" 
d="M446 594q-104 -10 -185 -10q-38 0 -102.5 1t-102.5 1q-27 4 -41.5 16t-16 34t1.5 32t31 28q74 19 167.5 28.5t242.5 20.5q13 1 26 1q65 0 71.5 -17t7.5 -36.5t-1.5 -41t-13 -36t-85.5 -21.5zM446 14q-104 -10 -185 -10q-38 0 -102.5 1t-102.5 1q-27 4 -41.5 16t-16 34
t1.5 32t31 28q74 19 167.5 28.5t242.5 20.5q13 1 26 1q65 0 71.5 -17t7.5 -36.5t-1.5 -41t-13 -36t-85.5 -21.5zM394 307q-67 -8 -118 -8q-25 0 -66 0.5t-65 0.5q-18 4 -27 13t-10 26.5t1 25.5t20 22q47 15 106.5 22t155.5 16q8 1 16 1q42 0 46 -13.5t4.5 -28.5t-1 -32
t-8 -28.5t-54.5 -16.5z" />
    <glyph glyph-name="Omicron" unicode="&#x39f;" horiz-adv-x="673" 
d="M604 368q0 -138 -73 -255q-87 -139 -243 -139q-85 0 -151 41q-137 85 -137 280q0 87 32 166q32 84 93 141q108 102 203 102q64 0 127 -46q149 -108 149 -290zM422 510q-16 39 -36 49q-14 7 -52 7q-74 0 -117 -62q-72 -103 -72 -206q0 -43 13 -83q18 -54 93 -88
q18 -8 39 -8q40 0 75 32q31 28 47 69q33 84 33 166q0 68 -23 124z" />
    <glyph glyph-name="Pi" unicode="&#x3a0;" horiz-adv-x="636" 
d="M43 744q6 2 14 3q11 1 32 0l4 -1q200 9 444 5q34 -14 39 -41l3 2q-35 -336 -41 -706q-28 -18 -54 -19q-12 -1 -42 7q-9 2 -14 10q-8 50 -12 106q-9 120 -4 273q2 64 10 242q-76 -5 -169 -2q-34 1 -109 6q-16 -279 -18 -621q-29 -19 -54 -22q-13 -1 -43 8q-9 3 -14 12
q-8 55 -12 117q-10 133 -6 303q2 76 10 292q12 17 30 24v2h6z" />
    <glyph glyph-name="Rho" unicode="&#x3a1;" horiz-adv-x="435" 
d="M377 527q-19 -72 -90 -150q-43 -47 -133 -123q0 -30 4 -90.5t4 -90.5q0 -39 -4 -63q-26 -37 -109 -34q-30 151 -38 351q-3 100 -10 301q39 16 117 47q69 26 123 26q64 0 102.5 -36.5t38.5 -100.5q0 -18 -5 -37zM251 552q-5 22 -34 22q-20 0 -49.5 -11t-42.5 -24
q-3 -28 -3 -56q0 -45 8 -88q129 94 121 157z" />
    <glyph glyph-name="Sigma" unicode="&#x3a3;" horiz-adv-x="600" 
d="M519 771q16 -11 15 -38q7 -34 0 -78q-3 -8 -11 -13q-125 -5 -405 -33q-4 -5 -4 -8t4 -7l278 -142q22 -22 20 -56q3 -32 -13 -51q-17 -14 -40 -42q-27 -23 -77 -67q-28 -48 -124 -138q194 -10 266 -8q79 -6 119 -3q16 -22 13 -55q2 -55 -18 -68q-160 -8 -532 -17
q-13 23 -13 115q0 29 5 41q83 68 270 289q-117 75 -281 159q-3 81 -3 104q0 40 28 55q13 5 59 15.5t192 28.5q87 8 131 17q60 8 121 0z" />
    <glyph glyph-name="Tau" unicode="&#x3a4;" horiz-adv-x="514" 
d="M462 701q1 -49 -4 -137q-74 -3 -154 -25q-15 -107 -22 -275l-12 -278q-57 -14 -69 -14q-26 0 -43 14q-6 53 -6 112q0 64 10 190.5t10 190.5q0 26 -1 51q-23 2 -64 -5q-45 -7 -63 -7q-19 0 -32 5q-9 67 -9 111q0 17 1 30q22 2 198 31q121 20 202 20q25 0 49 -2
q9 -10 9 -12z" />
    <glyph glyph-name="Upsilon" unicode="&#x3a5;" horiz-adv-x="675" 
d="M633 749q-10 -37 -37 -99q-70 -159 -187 -362l-198 -341q-8 -14 -119 -27q-24 -3 -24 9q0 5 3 12q47 86 194 394q-111 106 -262 273q-3 2 -3 6q0 16 128 83q10 4 27 10q120 -144 200 -210q53 100 105 226q9 22 21 28t38 6q18 0 114 -8z" />
    <glyph glyph-name="Phi" unicode="&#x3a6;" horiz-adv-x="673" 
d="M237 475q-9 -7 -18 -16q-72 -72 -72 -144q0 -30 13 -58q13 -27 53 -47q4 97 18 211q2 21 6 54zM359 207q4 3 8 5q31 19 47 48q33 59 33 116q0 48 -23 87q-16 27 -36 34l-6 2q-9 -139 -23 -292zM387 593q35 -8 70 -26q149 -76 149 -203q0 -97 -73 -179q-70 -78 -184 -93
q-3 -35 -7 -71q-34 -16 -63 -16q-14 0 -48 11q-10 3 -15 12q-2 32 -3 67q-40 7 -74 22q-137 59 -137 196q0 60 32 116q32 59 93 98q65 43 125 61q6 46 14 104q22 23 59 23q12 0 36 -3l32 -4q-2 -56 -6 -115z" />
    <glyph glyph-name="Chi" unicode="&#x3a7;" horiz-adv-x="627" 
d="M575 699q-27 -57 -168 -298q4 -8 85 -148q53 -91 75 -153q-24 -45 -108 -66q-26 -6 -38 5q-34 78 -115 234q-51 -127 -92 -267q-18 -19 -55 -26q-9 -2 -63 -7q-56 4 -56 39q0 11 4 22q34 92 127 320q-29 66 -82 150l-87 138q-2 3 -2 7q0 17 53 26q34 5 67 5q72 0 80 -15
q13 -25 94 -168q22 33 136 207q12 18 56 18q50 0 89 -23z" />
    <glyph glyph-name="Psi" unicode="&#x3a8;" horiz-adv-x="724" 
d="M400 403q52 18 78 53q62 56 86 158q5 60 9 176q38 15 104 15q26 0 45 -5q-1 -201 -44 -269q-46 -89 -146 -161q-63 -43 -149 -59q-22 -123 -54 -285q-26 -17 -48 -18h-46q-8 3 -11 12q-5 22 6 139q6 69 12 145q-49 2 -85 11q-142 56 -151 203q-5 81 7 160l14 95
q12 26 131 28q31 7 -2 -142q-22 -98 -20 -147q0 -53 21 -81q1 -19 32 -32q22 -10 61 -13q3 36 7 73q7 72 26 287q-1 25 56 37q58 14 76 18.5t28.5 -3.5t-7.5 -166q-10 -79 -36 -229z" />
    <glyph glyph-name="uni03A9" unicode="&#x3a9;" horiz-adv-x="721" 
d="M247 86l4 -85q-38 2 -75 2q-26 0 -170 -2q-15 78 1 120q34 0 60 -1q-70 89 -70 233q-2 105 21 174q31 106 103 178q88 113 270 118q91 -4 185 -107q76 -89 72 -285q0 -149 -79 -273q-14 -23 -31 -42q46 1 119 3q29 -22 -21 -118q-148 2 -174 2q-38 0 -80 -4l1 112
q8 1 17 1q7 3 17 7q20 27 42.5 62t36.5 86t10.5 125t-26 131.5t-37.5 71.5t-56.5 32t-91 -0.5t-95 -76.5t-70.5 -148t-2 -188.5t122 -86.5z" />
    <glyph glyph-name="Iotadieresis" unicode="&#x3aa;" horiz-adv-x="250" 
d="M181 687q-13 -305 -51 -687q-34 -16 -63 -16q-14 0 -48 11q-10 3 -15 12q-4 52 -4 110q0 125 19 283q8 70 35 271q22 23 59 23q12 0 36 -3zM271 850q-24 -27 -64 -27q-14 0 -28 3q-39 15 -51 45q-1 7 -1 14q0 32 22 54q22 37 66 37q41 0 56 -37q11 -27 11 -49t-11 -40z
M32 949q4 -18 4 -35q0 -93 -86 -84q-51 17 -51 65q0 31 24 57t55 26q42 0 54 -29z" />
    <glyph glyph-name="Upsilondieresis" unicode="&#x3ab;" horiz-adv-x="661" 
d="M633 749q-10 -37 -37 -99q-70 -159 -187 -362l-198 -341q-8 -14 -119 -27q-24 -3 -24 9q0 5 3 12q47 86 194 394q-111 106 -262 273q-3 2 -3 6q0 16 128 83q10 4 27 10q120 -144 200 -210q53 100 105 226q9 22 21 28t38 6q18 0 114 -8zM497 850q-24 -27 -64 -27
q-14 0 -28 3q-39 15 -51 45q-1 7 -1 14q0 32 22 54q22 37 66 37q41 0 56 -37q11 -27 11 -49t-11 -40zM258 949q4 -18 4 -35q0 -93 -86 -84q-51 17 -51 65q0 31 24 57t55 26q42 0 54 -29z" />
    <glyph glyph-name="alphatonos" unicode="&#x3ac;" horiz-adv-x="597" 
d="M201 469q-42 0 -86 -62q-35 -49 -53 -121q-7 -25 -7 -45q0 -28 16 -46q17 -20 48 -20q43 0 79 49q30 50 42 93q15 52 7 102q-10 50 -46 50zM315 197q-119 -141 -204 -120q-68 0 -96 75q-14 37 -15 112q0 45 14 98q23 89 90 165q81 80 161 80q67 0 101 -94q30 57 54 101
q1 36 81 38.5t64 -42.5q-29 -92 -159 -285q9 -38 17 -66q23 -84 49 -179q4 -39 -48.5 -64.5t-64.5 10.5q-23 91 -44 171zM369 772q-65 -90 -80 -101q-4 -2 -13 -2q-39 0 -43 7q7 21 25 54q9 23 17 36q3 8 13 17q8 9 24 16q23 6 38 4q18 0 23.5 -6t-4.5 -25z" />
    <glyph glyph-name="epsilontonos" unicode="&#x3ad;" 
d="M62 292q38 23 87 28q-133 101 -133 210q0 62 33 108q57 45 125 42q95 0 220 -76q9 -8 9 -36q0 -18 -7 -48q-7 -37 -19 -32q-60 33 -70 39q-52 26 -97 26q-8 0 -20.5 -2t-19 -19t-3.5 -33q9 -52 58.5 -86t101.5 -51q12 -12 12 -43q0 -55 -24 -72l-41 -7.5t-56 -7.5
q-32 0 -58 -18q-10 -6 -13 -13q-6 -17 6 -42q25 -53 115 -81q43 -14 70 -13q53 1 53 -25q0 -20 -23.5 -43.5t-43.5 -22.5q-117 6 -203 35q-121 80 -121 175q0 25 8 50q19 33 54 58zM308 850q-65 -90 -80 -101q-4 -2 -13 -2q-39 0 -43 7q7 21 25 54q9 23 17 36q3 8 13 17
q8 9 24 16q23 6 38 4q18 0 23.5 -6t-4.5 -25z" />
    <glyph glyph-name="etatonos" unicode="&#x3ae;" 
d="M-3 328h-2q10 259 9 372q5 37 69 64t70 -24l-3 -97q22 47 67 65q87 3 154 -66q40 -32 45 -86q16 -56 9 -133q-12 -199 -37 -555q-74 -66 -96 -50q18 434 18 522q11 121 -14 139q-31 41 -66 46q-46 5 -73 -59q-9 -27 -15 -64l-2 -57l-6 -1q-10 -94 -8 -232
q-38 -51 -72.5 -73t-43.5 17q4 86 1 178q-3 62 -4 94zM338 856q-65 -90 -80 -101q-4 -2 -13 -2q-39 0 -43 7q7 21 25 54q9 23 17 36q3 8 13 17q8 9 24 16q23 6 38 4q18 0 23.5 -6t-4.5 -25z" />
    <glyph glyph-name="iotatonos" unicode="&#x3af;" 
d="M135 15q-1 204 8 302q3 45 9 123.5t13 132.5q1 46 29 63q22 8 57 14t47 -11t-17 -295q2 -67 -27 -264q-1 -16 -2 -31q-7 -78 -42 -73q-15 3 -37 19q-26 17 -38 20zM346 776q-65 -90 -80 -101q-4 -2 -13 -2q-39 0 -43 7q7 21 25 54q9 23 17 36q3 8 13 17q8 9 24 16
q23 6 38 4q18 0 23.5 -6t-4.5 -25z" />
    <glyph glyph-name="alpha" unicode="&#x3b1;" horiz-adv-x="598" 
d="M200 469q-42 0 -86 -62q-35 -49 -53 -121q-7 -25 -7 -45q0 -28 16 -46q17 -20 48 -20q43 0 79 49q30 50 42 93q15 52 7 102q-10 50 -46 50zM314 197q-119 -141 -204 -120q-68 0 -96 75q-14 37 -15 112q0 45 14 98q23 89 90 165q81 80 161 80q67 0 101 -94q30 57 54 101
q1 36 81 38.5t64 -42.5q-29 -92 -159 -285q9 -38 17 -66q23 -84 49 -179q4 -39 -48.5 -64.5t-64.5 10.5q-23 91 -44 171z" />
    <glyph glyph-name="beta" unicode="&#x3b2;" 
d="M306 531q-5 35 -41 48q-27 9 -53 2q-24 -7 -40 -24q-20 -14 -27 -48q-14 -13 -29 -381l24 15q10 -27 36 -36q36 -11 78 19q41 30 61 70q18 33 13 63q-6 38 -47 52q-67 7 -96 1q-55 -12 20 106q79 -5 93.5 31t7.5 82zM51 583q19 40 48 70q28 30 66 49q76 40 145 15
q80 -28 95 -113q11 -71 -21 -138q-6 -14 -34 -45q76 -15 89 -87q14 -76 -23 -149q-22 -43 -55 -75q-33 -34 -78 -56q-85 -42 -162 -18l11 -168q-43 -43 -89 -56.5t-48 22.5q-4 484 18.5 594t37.5 155z" />
    <glyph glyph-name="gamma" unicode="&#x3b3;" horiz-adv-x="585" 
d="M518 671q-138 -409 -216 -607l5 -206q-15 -5 -55 -5q-24 0 -40 1q-20 -1 -29 -1t-19 6q-4 2 -5 3q4 210 -15 279l-146 534q-6 33 77.5 30.5t77.5 -20.5q10 -16 24 -109l41 -240l22 -151q50 218 75 314q18 109 46 177q2 19 86.5 25t70.5 -30z" />
    <glyph glyph-name="delta" unicode="&#x3b4;" horiz-adv-x="540" 
d="M364 448q-14 35 -33 44q-13 7 -49 7q-72 0 -116 -56q-75 -93 -81 -186q-2 -39 9 -75q15 -48 86 -79q17 -7 37 -7q39 0 74 29q32 25 49 62q36 76 40 149q3 62 -16 112zM364 596q14 -7 28 -18q118 -89 110 -238q-6 -114 -71 -210q-79 -114 -207 -114q-70 0 -122 33
q-109 70 -100 231q4 71 33 136q31 69 83 116q44 40 85 61q-70 53 -128 106l6 7l-11 -1q14 55 32 105q216 47 372 51q3 -14 2 -36q-4 -70 -34 -105q-66 -3 -216 3q22 -15 47 -34z" />
    <glyph glyph-name="epsilon" unicode="&#x3b5;" 
d="M62 292q38 23 87 28q-133 101 -133 210q0 62 33 108q57 45 125 42q95 0 220 -76q9 -8 9 -36q0 -18 -7 -48q-7 -37 -19 -32q-60 33 -70 39q-52 26 -97 26q-8 0 -20.5 -2t-19 -19t-3.5 -33q9 -52 58.5 -86t101.5 -51q12 -12 12 -43q0 -55 -24 -72l-41 -7.5t-56 -7.5
q-32 0 -58 -18q-10 -6 -13 -13q-6 -17 6 -42q25 -53 115 -81q43 -14 70 -13q53 1 53 -25q0 -20 -23.5 -43.5t-43.5 -22.5q-117 6 -203 35q-121 80 -121 175q0 25 8 50q19 33 54 58z" />
    <glyph glyph-name="zeta" unicode="&#x3b6;" 
d="M418 586q-27 -25 -129 -95q-155 -107 -179.5 -216t140 -73t200.5 -30.5t-31 -172t-246 -151.5q-47 -7 17 104q114 26 162.5 102t19 94.5t-140.5 -31.5q-136 -51 -196 26q-67 101 2 232q49 91 134 160q-71 -10 -160 -20q-24 44 3 169l448 71q0 -34 -25 -143
q11 -13 -19 -26z" />
    <glyph glyph-name="eta" unicode="&#x3b7;" 
d="M-3 328h-2q10 259 9 372q5 37 69 64t70 -24l-3 -97q22 47 67 65q87 3 154 -66q40 -32 45 -86q16 -56 9 -133q-12 -199 -37 -555q-74 -66 -96 -50q18 434 18 522q11 121 -14 139q-31 41 -66 46q-46 5 -73 -59q-9 -27 -15 -64l-2 -57l-6 -1q-10 -94 -8 -232
q-38 -51 -72.5 -73t-43.5 17q4 86 1 178q-3 62 -4 94z" />
    <glyph glyph-name="theta" unicode="&#x3b8;" horiz-adv-x="726" 
d="M524 410q3 25 3 51q0 21 -9 42q-19 48 -78 48q-77 0 -163 -68q-73 -57 -103 -118l151 25q48 8 178 19q11 1 21 1zM151 280q-2 -19 -1 -39q3 -70 50 -107q26 -20 61 -20q13 0 77 15q55 13 118 109q16 25 29 50q-89 -10 -139 -10q-33 0 -98 1q-64 1 -97 1zM475 52
q-116 -91 -224 -90q-123 1 -175 49q-77 70 -77 205q0 61 17 127q31 121 143 222q108 97 233 126q26 6 52 6q62 0 112 -30t75 -85q34 -74 34 -161q0 -220 -190 -369z" />
    <glyph glyph-name="iota" unicode="&#x3b9;" 
d="M135 15q-1 204 8 302q3 45 9 123.5t13 132.5q1 46 29 63q22 8 57 14t47 -11t-17 -295q2 -67 -27 -264q-1 -16 -2 -31q-7 -78 -42 -73q-15 3 -37 19q-26 17 -38 20z" />
    <glyph glyph-name="kappa" unicode="&#x3ba;" horiz-adv-x="386" 
d="M-1 53q-1 204 2 265q-3 63 -0.5 121t13.5 181q6 29 28 43q32 6 43 -12l2 -36l6 -250q2 -67 4 -264q0 -16 -2 -31q-11 -61 -37 -56q-14 -10 -37 3q-20 11 -22 36zM122 432q87 81 117 99t46.5 8t23.5 -46t-106 -124l-114 -97q-7 -10 -7 -6l-51 83q35 26 91 83zM271 195
q14 -10 25 -21q76 -53 49 -73q-15 -15 -39 -25q-25 -7 -43 -2q-165 121 -239 184q-5 5 -11 10l69 70q56 -40 189 -143z" />
    <glyph glyph-name="lambda" unicode="&#x3bb;" 
d="M202 397l-96 249q-13 50 -8 58.5t14.5 10t30.5 1t44.5 -33t45 -75t59.5 -109.5t86.5 -193.5t85.5 -236.5q10 -31 -1 -55q-14 -14 -33 -21q-23 -10 -42 16.5t-62.5 116.5t-62.5 137q-4 9 -8 19q-59 -120 -167 -277q-13 -13 -39.5 -10t-38.5 9q-28 11 10 78q34 64 86 159
q50 92 96 157z" />
    <glyph glyph-name="uni03BC" unicode="&#x3bc;" horiz-adv-x="572" 
d="M120 34l-22 -165q-63 -69 -86 -36l-4 248q7 232 23 370t30 172t46 45q111 60 78 -4q-62 -240 -51 -498q20 -79 115 -31q34 27 51 76q28 117 55 290q10 96 29 171q13 31 74.5 41.5t54.5 -26.5q-110 -556 -142 -681q-37 -32 -57 -8l-1 69q-30 -37 -103 -48.5t-90 15.5z" />
    <glyph glyph-name="nu" unicode="&#x3bd;" horiz-adv-x="629" 
d="M594 580q4 -32 -155 -304q-64 -116 -92 -162t-51 -90q-12 -14 -60 -31q-20 12 -22 24v46l95 266q32 68 115 286q8 16 18 30q45 75 100 56q11 -9 23 -31q17 -21 29 -90zM55 486q-13 31 -24 60q-51 126 -24 128q17 8 41 10q30 0 41 -3q161 -404 201 -553q2 -74 -10 -39
l-52 -97q-55 126 -173 494z" />
    <glyph glyph-name="xi" unicode="&#x3be;" 
d="M287 460l2 -3q-156 -78 -179 -182q-25 -109 139.5 -73t200.5 -30.5t-31 -172t-246 -151.5q-47 -7 17 104q114 26 162.5 102t19 94.5t-140.5 -31.5q-136 -51 -196 26q-67 101 2 232q32 61 117 106q-126 26 -114 54q-46 94 47.5 176.5t278.5 77.5q47 -7 -5 -114
q-117 6 -190 -54t-49 -85q21 -23 165 5v-81z" />
    <glyph glyph-name="omicron" unicode="&#x3bf;" horiz-adv-x="730" 
d="M475 52q-116 -91 -224 -90q-123 1 -175 49q-77 70 -77 205q0 61 17 127q31 121 143 222q108 97 233 126q26 6 52 6q62 0 112 -30t75 -85q34 -74 34 -161q0 -220 -190 -369zM527 461q0 21 -9 42q-19 48 -78 48q-77 0 -163.5 -68t-112.5 -143q-16 -47 -14 -99
q3 -70 50 -107q26 -20 61 -20q13 0 77 15q55 13 118 109q73 111 71 223z" />
    <glyph glyph-name="pi" unicode="&#x3c0;" horiz-adv-x="636" 
d="M588 727q-3 -27 -3 -51t-3 -39t-21 -15q-19 0 -48 -6t-41 -8q-5 -8 -3 -16q-32 -343 -34 -537q-16 -14 -47 -31q-18 -7 -52 -19q-12 6 -13 22q5 95 19 277q15 195 18 272q-4 19 -19 14t-44 -12q-32 -10 -65 -25q-12 -87 -23 -355q-2 -108 -1 -176q-15 -15 -41 -18
q-22 0 -45 -1q-22 4 -22 30q-1 174 23 486q-4 0 -10 3q-43 -16 -94 -23q-18 5 -18 49q0 10 2 45q1 27 0 44q4 9 13 19q294 71 566 93q9 -2 6 -22z" />
    <glyph glyph-name="rho" unicode="&#x3c1;" horiz-adv-x="558" 
d="M266.5 571.5q-53.5 0.5 -112.5 -56.5t-73 -173q0 -38 13 -73q17 -46 90 -76q73 -15 123.5 18.5t67 84.5t18.5 102t-9.5 91.5t-37.5 61t-79.5 21zM-2 325q-2 19 -2 40q0 69 26 132q28 85 96 135q77 67 164 71q84 5 138 -25q88 -48 96 -239q-6 -153 -73 -226
q-82 -105 -210 -105q-70 0 -124 32q-13 8 -24 17q0 -27 1 -56l5 -233q-87 -48 -92 -14q-9 257 -1 471z" />
    <glyph glyph-name="sigma1" unicode="&#x3c2;" 
d="M79 345q-7 -111 161.5 -132t192.5 -121t-61 -172t-270 -55q-48 0 26 107q193 -28 230 15.5t2.5 90t-144.5 42.5q-152 1 -198 96q-48 123 70 288q127 125 283 159q53 -5 71 -128q-270 -45 -363 -190z" />
    <glyph glyph-name="sigma" unicode="&#x3c3;" horiz-adv-x="599" 
d="M182 506l-11 17l10 -20zM321 438q-24 29 -45 33q-15 3 -50 -5q-70 -18 -97 -80q-46 -104 -25 -192q9 -37 30 -68q28 -41 106 -53q18 -3 37 2q38 9 65 45q23 30 29 69q14 79 -3 148q-15 59 -47 101zM260 579q48 4 129 17l152 37q32 -77 2 -130q-64 -5 -124 -8
q48 -50 66 -125q27 -108 -10 -212q-43 -125 -168 -156q-67 -16 -128 2q-125 39 -163 191q-16 67 -6 135q11 71 48 128q67 100 160 117q18 7 42 4z" />
    <glyph glyph-name="tau" unicode="&#x3c4;" horiz-adv-x="567" 
d="M199 508l-155 -1l-29 17q-7 6 -9 27q10 31 22 36q33 4 59 5.5t143 9.5q191 14 252 13q19 -13 19 -30q11 -18 13 -30q5 -27 -53 -39q-12 -3 -24 -4q-81 -1 -135 -2q13 -185 -5 -467q-9 -29 -31.5 -39.5t-35.5 -12.5q-30 -5 -29 115q0 24 1 50q-6 235 -3 352z" />
    <glyph glyph-name="upsilon" unicode="&#x3c5;" 
d="M482 645q-20 -213 -56 -353q-31 -162 -106 -240q-44 -43 -107 -46q-82 -3 -131 50q-78 105 -78 296q0 74 36 297q13 20 59 12q37 0 43 -15l-28 -157q-12 -96 -12 -167q0 -101 41 -145q21 -39 54 -44q33 7 56 30q45 62 69 263q17 143 13 204q9 20 92 33q50 0 55 -18z" />
    <glyph glyph-name="phi" unicode="&#x3c6;" horiz-adv-x="586" 
d="M216 514l-2 49q-8 114 27 127q12 18 83 11q64 -11 114 -50q87 -70 100 -146q17 -79 -17 -140q-59 -110 -188 -142q-11 -3 -22 -5q-5 -60 -10 -122l-14 -88q-57 -55 -61 -21q-3 117 -6 229q-41 5 -81 21q-112 46 -138 147q-14 101 10 164q28 72 83.5 111t61.5 18t10.5 -68
t-23.5 -58q-44 -30 -55.5 -69.5t-4.5 -75t31 -63t55 -37.5q25 -6 50 -7q-2 110 -3 215zM319 311q20 7 46 25q30 21 45 45.5t20 48.5q4 18 -2 60q-9 65 -65 78q-23 7 -30 -37q-4 -1 -7 -1l4 -2q0 -45 -2 -113q-5 -51 -9 -104z" />
    <glyph glyph-name="chi" unicode="&#x3c7;" horiz-adv-x="531" 
d="M235 479q43 71 143 234q28 14 57 0q10 -5 28 -16l30 -39q-78 -112 -189 -296q84 -144 166 -294q-14 -31 -34 -46q-10 -8 -40 -17q-9 -4 -18 1q-23 67 -57 111q-43 59 -88 126q-62 -106 -134 -231q-35 -3 -58 8q-11 6 -33 29q-6 7 -6 17q42 71 69 127q38 76 89 162
q-38 63 -128 214q-43 72 -31 99t85 54q75 -119 149 -243z" />
    <glyph glyph-name="psi" unicode="&#x3c8;" horiz-adv-x="674" 
d="M347 292q66 23 97 97q44 77 53 165q4 32 8 113q35 16 79 16q24 0 42 -5q4 -109 -21 -226q-32 -152 -110 -223q-67 -51 -161 -64q-14 -134 -30 -294q-24 -18 -45 -19q-10 0 -34 11q-7 3 -11 12q-6 69 -5 131q6 74 11 154q-44 2 -78 12q-133 59 -142 212q-4 84 7 167
l15 105q10 21 94 23q18 2 20 1q5 -2 3 -15q-9 -45 -26 -134q-11 -92 -9 -114q0 -54 19 -84q21 -20 50 -34q18 -8 53 -13q0 21 1 41q7 75 25 300q16 25 74 39q8 0 26 -2l35 -20q-17 -134 -40 -352z" />
    <glyph glyph-name="omega" unicode="&#x3c9;" horiz-adv-x="806" 
d="M263 26q-32 -12 -102 -5q-92 10 -152 149q-29 114 -3 241q22 83 42 104.5t23 21.5q31 -1 83 -51q-27 -50 -45 -158q-16 -116 26 -165q81 -46 129.5 11.5t59.5 116.5q9 70 9 105v35q20 33 62 32q13 0 28 -17q6 -74 18.5 -131.5t46.5 -108.5q39 -51 63.5 -54.5t50 11.5
t42.5 83q8 50 5 99q-6 61 -13 130q-7 16 37 26q24 8 46 8q32 0 42 -12q22 -131 -10 -301q-33 -98 -89 -145q-81 -44 -122 -28q-110 14 -156 183q-2 -38 -37 -108q-40 -59 -84 -72z" />
    <glyph glyph-name="iotadieresis" unicode="&#x3ca;" 
d="M135 15q-1 204 8 302q3 45 9 123.5t13 132.5q1 46 29 63q22 8 57 14t47 -11t-17 -295q2 -67 -27 -264q-1 -16 -2 -31q-7 -78 -42 -73q-15 3 -37 19q-26 17 -38 20zM376 818q-24 -27 -64 -27q-14 0 -28 3q-39 15 -51 45q-1 7 -1 14q0 32 22 54q22 37 66 37q41 0 56 -37
q11 -27 11 -49t-11 -40zM137 917q4 -18 4 -35q0 -93 -86 -84q-51 17 -51 65q0 31 24 57t55 26q42 0 54 -29z" />
    <glyph glyph-name="upsilondieresis" unicode="&#x3cb;" 
d="M482 645q-20 -213 -56 -353q-31 -162 -106 -240q-44 -43 -107 -46q-82 -3 -131 50q-78 105 -78 296q0 74 36 297q13 20 59 12q37 0 43 -15l-28 -157q-12 -96 -12 -167q0 -101 41 -145q21 -39 54 -44q33 7 56 30q45 62 69 263q17 143 13 204q9 20 92 33q50 0 55 -18z
M417 818q-24 -27 -64 -27q-14 0 -28 3q-39 15 -51 45q-1 7 -1 14q0 32 22 54q22 37 66 37q41 0 56 -37q11 -27 11 -49t-11 -40zM178 917q4 -18 4 -35q0 -93 -86 -84q-51 17 -51 65q0 31 24 57t55 26q42 0 54 -29z" />
    <glyph glyph-name="omicrontonos" unicode="&#x3cc;" horiz-adv-x="730" 
d="M475 52q-116 -91 -224 -90q-123 1 -175 49q-77 70 -77 205q0 61 17 127q31 121 143 222q108 97 233 126q26 6 52 6q62 0 112 -30t75 -85q34 -74 34 -161q0 -220 -190 -369zM527 461q0 21 -9 42q-19 48 -78 48q-77 0 -163.5 -68t-112.5 -143q-16 -47 -14 -99
q3 -70 50 -107q26 -20 61 -20q13 0 77 15q55 13 118 109q73 111 71 223zM610 856q-65 -90 -80 -101q-4 -2 -13 -2q-39 0 -43 7q7 21 25 54q9 23 17 36q3 8 13 17q8 9 24 16q23 6 38 4q18 0 23.5 -6t-4.5 -25z" />
    <glyph glyph-name="upsilontonos" unicode="&#x3cd;" 
d="M482 645q-20 -213 -56 -353q-31 -162 -106 -240q-44 -43 -107 -46q-82 -3 -131 50q-78 105 -78 296q0 74 36 297q13 20 59 12q37 0 43 -15l-28 -157q-12 -96 -12 -167q0 -101 41 -145q21 -39 54 -44q33 7 56 30q45 62 69 263q17 143 13 204q9 20 92 33q50 0 55 -18z
M325 737q-65 -90 -80 -101q-4 -2 -13 -2q-39 0 -43 7q7 21 25 54q9 23 17 36q3 8 13 17q8 9 24 16q23 6 38 4q18 0 23.5 -6t-4.5 -25z" />
    <glyph glyph-name="omegatonos" unicode="&#x3ce;" horiz-adv-x="806" 
d="M263 26q-32 -12 -102 -5q-92 10 -152 149q-29 114 -3 241q22 83 42 104.5t23 21.5q31 -1 83 -51q-27 -50 -45 -158q-16 -116 26 -165q81 -46 129.5 11.5t59.5 116.5q9 70 9 105v35q20 33 62 32q13 0 28 -17q6 -74 18.5 -131.5t46.5 -108.5q39 -51 63.5 -54.5t50 11.5
t42.5 83q8 50 5 99q-6 61 -13 130q-7 16 37 26q24 8 46 8q32 0 42 -12q22 -131 -10 -301q-33 -98 -89 -145q-81 -44 -122 -28q-110 14 -156 183q-2 -38 -37 -108q-40 -59 -84 -72zM470 737q-65 -90 -80 -101q-4 -2 -13 -2q-39 0 -43 7q7 21 25 54q9 23 17 36q3 8 13 17
q8 9 24 16q23 6 38 4q18 0 23.5 -6t-4.5 -25z" />
    <glyph glyph-name="afii10023" unicode="&#x401;" horiz-adv-x="492" 
d="M456 687q5 -28 -8 -68t-33 -62q-118 -7 -211 -17l-9 -1l-1 -9q0 -5 -14 -60q-10 -40 -3 -57l3 -7h7q13 0 47 2q45 3 68 4q61 3 98 -6q3 -15 3 -32q0 -29 -8 -65q-41 -9 -116 -17q-56 -6 -112 -14l-7 -1l-2 -7q-12 -44 -4 -120l1 -9l10 -1q19 -2 131 12q32 4 60 4
q33 0 59 -6q-1 -19 -6 -69q-6 -44 -33 -49q-73 -14 -170 -22l-168 -15q-16 3 -27.5 16.5t-11.5 30.5q5 184 25 316q24 155 78 293q142 31 354 36zM409 850q-24 -27 -64 -27q-14 0 -28 3q-39 15 -51 45q-1 7 -1 14q0 32 22 54q22 37 66 37q41 0 56 -37q11 -27 11 -49t-11 -40
zM170 949q4 -18 4 -35q0 -93 -86 -84q-51 17 -51 65q0 31 24 57t55 26q42 0 54 -29z" />
    <glyph glyph-name="afii10051" unicode="&#x402;" horiz-adv-x="555" 
d="M161 399l-1 -54l-6 -1q-10 -94 -8 -232q-38 -51 -72.5 -73t-43.5 17q4 86 1 178q-3 63 -2 95l-4 -1q9 245 9 431q-8 1 -15 1q-18 22 -18 64q3 6 15 14q56 9 112 14q7 1 13 1q107 10 211 9l7 -31q5 -22 6 -37q2 -34 -19 -37q-8 -1 -19 2q-57 4 -154 2h-2l-4 -153
q32 57 116 49q61 12 135 -43q35 -36 60 -77q27 -55 34 -134q14 -172 -62 -279q-82 -95 -176 -86t-69 92q103 -9 164 74q27 36 35 103q6 82 -43 175q-48 49 -111 43q-46 5 -73 -59q-9 -28 -16 -67z" />
    <glyph glyph-name="afii10052" unicode="&#x403;" horiz-adv-x="539" 
d="M135 98q-1 -93 -5 -100q-10 -17 -52 -17q-61 0 -73 19q-5 105 -5 194q0 308 68 528q230 50 398 55q5 -15 5 -39q0 -76 -32 -114q-73 -3 -259 -19l-9 -1v-10q-4 -22 -11 -68q-2 -48 -8 -113l-8 -162q-8 -56 -9 -153zM425 910q-45 -34 -233 -101q-7 -3 -29.5 13.5
t-22.5 25.5q0 18 85 79q96 69 114 69t52.5 -34.5t34.5 -48.5q0 -2 -1 -3z" />
    <glyph glyph-name="afii10053" unicode="&#x404;" horiz-adv-x="650" 
d="M374 286q-132 2 -271 4q2 -33 9 -66q10 -49 45 -85q41 -43 97 -51q29 -4 57 0q85 33 121 89q30 43 129 31l27 -4q-49 -133 -185 -184q-76 -26 -162 -12q-158 27 -216 176q-20 53 -26 108v102q4 24 9 48q40 172 200 255q127 42 205 7q89 -35 141 -112q12 -22 20 -43
l-108 -75q-5 15 -14 32q-39 65 -126 81q-55 4 -93 -11q-42 -18 -67 -54q-30 -36 -42 -81q-12 -54 -13 -63q63 -8 156 -1q78 4 154 9l4 -97z" />
    <glyph glyph-name="afii10054" unicode="&#x405;" horiz-adv-x="493" 
d="M424 149q-54 -171 -292 -219l-5 -1l-2 4q-2 4 -29 37q-18 22 -18 34q0 16 28 36t86 62q53 40 65 78q10 31 0 49q-13 25 -61 47q-8 5 -77 30q-120 44 -120 119q0 32 19 75q49 111 153 183q37 25 227 107l7 3l2 -8q3 -39 11 -129l1 -5l-5 -2q-81 -32 -164 -93
q-16 -11 -68 -65q-22 -27 -22 -53q0 -13 6 -27q24 -22 86 -47q82 -33 94 -39q87 -44 87 -119q0 -28 -9 -57z" />
    <glyph glyph-name="afii10055" unicode="&#x406;" horiz-adv-x="250" 
d="M181 687q-13 -305 -51 -687q-34 -16 -63 -16q-14 0 -48 11q-10 3 -15 12q-4 52 -4 110q0 125 19 283q8 70 35 271q22 23 59 23q12 0 36 -3z" />
    <glyph glyph-name="afii10056" unicode="&#x407;" horiz-adv-x="382" 
d="M243 687q-13 -305 -51 -687q-34 -16 -63 -16q-14 0 -48 11q-10 3 -15 12q-4 52 -4 110q0 125 19 283q8 70 35 271q22 23 59 23q12 0 36 -3zM368 839q-24 -27 -64 -27q-14 0 -28 3q-39 15 -51 45q-1 7 -1 14q0 32 22 54q22 37 66 37q41 0 56 -37q11 -27 11 -49t-11 -40z
M129 938q4 -18 4 -35q0 -93 -86 -84q-51 17 -51 65q0 31 24 57t55 26q42 0 54 -29z" />
    <glyph glyph-name="afii10057" unicode="&#x408;" horiz-adv-x="520" 
d="M442 667q7 -432 -57 -588q-18 -43 -60 -74q-45 -33 -90 -33q-108 0 -208 163q-20 33 -29 66q11 12 33 26q30 19 47 19q6 0 10 -2q25 -37 62 -74q48 -49 77 -49q47 0 58 103q3 26 3 137q0 60 -9 300q-1 19 46 34q37 12 62 12q54 0 55 -40z" />
    <glyph glyph-name="afii10058" unicode="&#x409;" horiz-adv-x="901" 
d="M563 313q-5 -54 0 -110q0 -38 6 -78q20 -6 56 -12.5t79 7.5q63 17 48 119q-47 105 -189 74zM482 790q21 6 37 6q40 0 40 -43q0 -16 -6 -39q3 -16 4 -36q3 -34 4.5 -101.5t2.5 -114.5q103 4 172 -46q100 -85 101 -171q7 -20 8 -40q-6 -90 -35 -128t-97 -66
q-65 -18 -145 -7q-58 2 -110 22v7q-17 -5 -38 -3q-6 6 -13 34q0 304 21 595q-46 1 -105 -1q-32 -1 -60 -2q2 -101 -27 -310q-43 -293 -101 -304q-47 -45 -140 -46q6 49 3 120q105 -40 113.5 227t11.5 395v3q3 7 18 18q173 29 341 31z" />
    <glyph glyph-name="afii10059" unicode="&#x40a;" horiz-adv-x="801" 
d="M480 259q-7 -46 -6 -92q-2 -32 0 -78q18 -5 67 -3.5t85 12.5q48 29 32 105q-17 81 -178 56zM492 687q20 -6 32 -15q-4 -27 -8 -56v-11q1 -31 -10.5 -94.5t-13.5 -107.5q114 4 174 -43q86 -80 83 -161q5 -19 6 -38q-10 -84 -37.5 -119.5t-90.5 -61.5q-60 -18 -133 -10
q-45 0 -92 4q-9 1 -19 1q-13 1 -56 7q-9 54 -9 130q0 21 1 69.5t1 70.5v12l-11 1q-77 7 -137 -11l-7 -2l-2 -7q-10 -79 -32 -225q-42 -17 -82 -17q-21 0 -37 5q-8 6 -10 13l25 344q20 193 63 339q32 16 83 16q18 0 39 -2q-2 -57 -13 -157q-5 -42 -8.5 -90t-4.5 -53l-1 -9
l10 -2q55 -11 126 -3l9 1l1 9q20 178 44 270q7 14 45 14q8 0 15 -1q36 2 57 -10z" />
    <glyph glyph-name="afii10060" unicode="&#x40b;" horiz-adv-x="648" 
d="M204 566q28 40 85 69q146 63 257 -3q50 -46 54 -77q12 -75 5 -152q-2 -140 -4 -363q-99 -68 -131 -24q23 237 23 324q12 121 -15 139q-62 93 -179 51q-57 -28 -80 -88q-35 -82 -32 -330q4 -23 -55 -59t-68 3q4 86 5.5 168t-0.5 125l1 -1q-1 225 -2 411q-30 0 -48 1
q-19 22 -19 64q3 6 16 14q183 26 402 48q35 -2 17 -61.5t-39 -62.5q-8 -6 -24 -3q-36 -1 -160 1z" />
    <glyph glyph-name="afii10061" unicode="&#x40c;" horiz-adv-x="573" 
d="M382 476q-3 -102 -112 -139l118 -136q72 -82 106 -142q7 -23 -44 -48q-45 -23 -71 -22q-90 84 -212 250q-5 -52 -16 -154q-9 -84 -26 -106q-36 -4 -57 -4q-65 0 -70 32q9 271 14 353q13 190 40 345q43 8 80 8q57 0 59 -24q1 -10 1 -36q0 -8 -15 -210q113 -23 140 128
q17 70 108 108q70 13 101 2q1 -41 2 -61.5t-1 -49t-56.5 -25.5t-88.5 -69zM453 910q-45 -34 -233 -101q-7 -3 -29.5 13.5t-22.5 25.5q0 18 85 79q96 69 114 69t52.5 -34.5t34.5 -48.5q0 -2 -1 -3z" />
    <glyph glyph-name="afii10062" unicode="&#x40e;" 
d="M679 736q-140 -174 -292 -403q-17 -26 -265 -414q-11 -10 -24 -10q-15 0 -38 15q-31 20 -36 22l-23 23q28 63 98 182l118 199l-216 283v18q60 35 81 46q44 22 85 35q97 -117 153 -242q95 164 166 273q33 -1 97 -4q52 -4 96 -23zM387 891q-2 -12 -8 -23q-16 -35 -44 -37
q-40 -2 -53 30q-7 8 -24 44q-5 10 -29 9q-16 0 -50 -25q-6 -1 -8 -20q5 -20 22 -44q22 -29 48 -45q41 -26 82 -26q77 3 130 56q28 35 33 53q8 19 7 28q-8 18 -48 25q-13 0 -36 1q-18 -10 -20 -14q0 1 -2 -12z" />
    <glyph glyph-name="afii10145" unicode="&#x40f;" horiz-adv-x="615" 
d="M30 11q-19 8 -32 24q0 89 -2 308q8 236 26 333q-4 23 -2 41q6 42 49 42q18 0 45 -8l39 -10q-10 -297 -45 -608q67 -2 179 1q36 1 67 1q9 113 14 257q11 351 39 367t151 23q-13 -140 -32.5 -370.5t-23.5 -356.5l-1 -1v-2q-3 -6 -18 -17q-82 -13 -167 -21q-8 -80 -29 -157
l-40 -4q-29 -3 -47 -3q-43 0 -43 15q0 7 6 15q-5 35 18 120l2 6q-75 -3 -152 -2z" />
    <glyph glyph-name="afii10017" unicode="&#x410;" horiz-adv-x="566" 
d="M510 40q-34 -22 -97 -20q-25 35 -58 133l-3 9l-9 -1q-102 -11 -179 -37l-6 -2l-2 -6q-7 -34 -26 -92q-14 -26 -52 -25q-35 1 -80 7q16 143 77 350q25 86 112 353q5 7 42 10q34 3 46 1q18 -26 55 -97q106 -241 180 -583zM324 266q-14 48 -56 170l-25 66l-17 -69
q-13 -48 -37 -173l-4 -26l26 1q16 1 113 31z" />
    <glyph glyph-name="afii10018" unicode="&#x411;" 
d="M406 186q-6 -81 -35 -114.5t-96 -58.5q-66 -17 -145 -7q-59 2 -111 20q-10 188 -16 336q-5 164 -6 334q82 11 312 4q104 -110 -189 -105q1 -15 2.5 -75.5t2.5 -102.5q104 4 173 -41q100 -76 100 -153q7 -19 8 -37zM124 283q-4 -48 0 -98q1 -34 6 -70q21 -5 56.5 -11
t78.5 6q64 16 48 107q-47 94 -189 66z" />
    <glyph glyph-name="afii10019" unicode="&#x412;" horiz-adv-x="574" 
d="M506 287q5 -15 5 -33q0 -53 -25 -92q-62 -97 -171 -137q-49 -18 -243 -53q-17 -3 -19 -3q-21 0 -26 32q-28 180 -28 409q0 119 8 217h4q86 43 119 56q89 35 157 35q72 0 124 -41q24 -19 24 -71q0 -22 -7 -44q-21 -66 -129 -176q59 -10 118 -19q69 -20 89 -80zM265 582
q1 24 -7 28q-13 5 -28 5q-57 0 -104 -50q-7 -44 -7 -173q60 24 101 74q43 54 45 116zM333 264q-19 21 -59 21q-70 0 -155 -49q-2 -70 11 -135q117 14 176 68q33 30 33 75q0 13 -6 20z" />
    <glyph glyph-name="afii10020" unicode="&#x413;" horiz-adv-x="484" 
d="M135 98q-1 -93 -5 -100q-10 -17 -52 -17q-61 0 -73 19q-5 105 -5 194q0 308 68 528q230 50 398 55q5 -15 5 -39q0 -76 -32 -114q-73 -3 -259 -19l-9 -1v-10q-4 -22 -11 -68q-2 -48 -8 -113l-8 -162q-8 -56 -9 -153z" />
    <glyph glyph-name="afii10021" unicode="&#x414;" horiz-adv-x="562" 
d="M325 206q17 182 35 356q-37 0 -82 -1q-31 -2 -57 -3q-6 -231 -27 -309q-12 -31 -24 -54q78 7 155 11zM501 568q-12 -87 -32 -225q-21 -80 -31 -131h10q19 3 46 6q7 -2 15 -9q11 -107 8 -203l-34 -4q-24 -3 -40 -3q-37 -1 -40 11q-1 4 3 11q-1 45 3 86q-63 2 -156 0
q-77 -2 -128 -2q11 -55 9 -109l-42 -4q-29 -2 -48 -3q-45 0 -49 10q-1 4 4 10q5 31 4 82q-1 12 -1 22q-10 16 -6 45q3 2 6 3q1 7 2 12q9 3 21 5q55 54 67 206q10 144 15 235q-1 16 -1 34q1 3 3 7l1 9l27 14q29 5 48 5h7q103 17 216 20q23 6 74 6q36 0 36 -33q0 -13 -5 -33
q-3 -21 -7 -48q0 -21 -5 -32z" />
    <glyph glyph-name="afii10022" unicode="&#x415;" horiz-adv-x="492" 
d="M456 687q5 -28 -8 -68t-33 -62q-118 -7 -211 -17l-9 -1l-1 -9q0 -5 -14 -60q-10 -40 -3 -57l3 -7h7q13 0 47 2q45 3 68 4q61 3 98 -6q3 -15 3 -32q0 -29 -8 -65q-41 -9 -116 -17q-56 -6 -112 -14l-7 -1l-2 -7q-12 -44 -4 -120l1 -9l10 -1q19 -2 131 12q32 4 60 4
q33 0 59 -6q-1 -19 -6 -69q-6 -44 -33 -49q-73 -14 -170 -22l-168 -15q-16 3 -27.5 16.5t-11.5 30.5q5 184 25 316q24 155 78 293q142 31 354 36z" />
    <glyph glyph-name="afii10024" unicode="&#x416;" horiz-adv-x="779" 
d="M420 416q119 15 129 136q4 132 125 129q79 4 80.5 -44.5t-7.5 -106.5q-83 17 -110 -78q-9 -76 -80 -118q80 -55 79 -140q10 -112 109 -82q12 -14 9 -68.5t-80 -46.5q-135 20 -135 179q10 110 -111 124q-9 0 -20 -1q-14 -127 -33 -282q-20 -17 -39 -19q-8 -2 -31 6
q-6 1 -10 9q-1 69 -5 120q1 76 2 166q-129 -17 -126 -149q6 -170 -125 -163q-40 9 -40.5 47t5.5 81q72 -11 73 79q-1 88 86 145q-87 56 -86 144q-8 95 -73 90q-6 33 -6 61t10 53q182 20 185 -105q-15 -153 98 -170q0 73 -3 246q20 19 76.5 38t75.5 -5q-5 -106 -22 -275z" />
    <glyph glyph-name="afii10025" unicode="&#x417;" horiz-adv-x="497" 
d="M454 326q10 -29 10 -57q0 -110 -140 -203q-98 -66 -233 -72q-23 -1 -50.5 26t-27.5 50q0 30 62 29q31 -1 81 15q102 32 132 93q14 29 6 49q-3 7 -14 15q-30 20 -67 20q-17 0 -64 -13l-47 -13q-28 20 -28 84q0 34 14 48q59 20 116.5 81t66.5 120q4 19 -3 38.5t-22 22
t-24 2.5q-52 0 -112 -30q-12 -7 -81 -45q-13 -6 -21 37q-8 34 -8 55q0 32 10 41q144 88 254 88q75 0 137 -40q44 -29 44 -101q0 -125 -153 -273q64 -5 92 -14q48 -15 70 -53z" />
    </font>
</defs>
</svg>
